Pattern-Oriented Software Architectures for Concurrent and Networked Software

Posted By: ParRus
Pattern-Oriented Software Architectures for Concurrent and Networked Software

Pattern-Oriented Software Architectures for Concurrent and Networked Software
Vanderbilt University with Douglas C. Schmidt

WEBRip | English | MP4 + PDF Guides | 960 x 540 | AVC ~186 kbps | 29.970 fps
AAC | 128 Kbps | 44.1 KHz | 2 channels | Subs: English (.srt) | 31:19:29 | 5.14 GB
Genre: eLearning Video / Computer Science: Programming & Software Engineering, Systems, Security

Learn how to apply patterns and frameworks to alleviate the complexity of developing concurrent and networked software. Students will write concurrent and networked software programs in popular open-source pattern-oriented software architecture frameworks, such as Android (Java) and ACE (C++).
also You can watch my other last: Coursera-posts

General
Complete name : 18_W4-5_Framework_Examples-_Part_1_14-00.mp4
Format : MPEG-4
Format profile : Base Media
Codec ID : isom
File size : 32.3 MiB
Duration : 14mn 4s
Overall bit rate mode : Variable
Overall bit rate : 321 Kbps
Encoded date : UTC 1970-01-01 00:00:00
Tagged date : UTC 1970-01-01 00:00:00
Writing application : Lavf53.29.100

Video
ID : 1
Format : AVC
Format/Info : Advanced Video Codec
Format profile : High@L3.1
Format settings, CABAC : Yes
Format settings, ReFrames : 4 frames
Codec ID : avc1
Codec ID/Info : Advanced Video Coding
Duration : 14mn 4s
Bit rate : 186 Kbps
Width : 960 pixels
Height : 540 pixels
Display aspect ratio : 16:9
Frame rate mode : Constant
Frame rate : 29.970 fps
Color space : YUV
Chroma subsampling : 4:2:0
Bit depth : 8 bits
Scan type : Progressive
Bits/(Pixel*Frame) : 0.012
Stream size : 18.7 MiB (58%)
Writing library : x264 core 120 r2120 0c7dab9
Encoding settings : cabac=1 / ref=3 / deblock=1:0:0 / analyse=0x3:0x113 / me=hex / subme=7 / psy=1 / psy_rd=1.00:0.00 / mixed_ref=1 / me_range=16 / chroma_me=1 / trellis=1 / 8x8dct=1 / cqm=0 / deadzone=21,11 / fast_pskip=1 / chroma_qp_offset=-2 / threads=12 / sliced_threads=0 / nr=0 / decimate=1 / interlaced=0 / bluray_compat=0 / constrained_intra=0 / bframes=3 / b_pyramid=2 / b_adapt=1 / b_bias=0 / direct=1 / weightb=1 / open_gop=0 / weightp=2 / keyint=250 / keyint_min=25 / scenecut=40 / intra_refresh=0 / rc_lookahead=40 / rc=crf / mbtree=1 / crf=28.0 / qcomp=0.60 / qpmin=0 / qpmax=69 / qpstep=4 / ip_ratio=1.40 / aq=1:1.00
Encoded date : UTC 1970-01-01 00:00:00
Tagged date : UTC 1970-01-01 00:00:00

Audio
ID : 2
Format : AAC
Format/Info : Advanced Audio Codec
Format profile : LC
Codec ID : 40
Duration : 14mn 4s
Bit rate mode : Variable
Bit rate : 128 Kbps
Channel(s) : 2 channels
Channel positions : Front: L R
Sampling rate : 44.1 KHz
Compression mode : Lossy
Stream size : 12.8 MiB (40%)
Encoded date : UTC 1970-01-01 00:00:00
Tagged date : UTC 1970-01-01 00:00:00
Screenshots

Pattern-Oriented Software Architectures for Concurrent and Networked Software

Pattern-Oriented Software Architectures for Concurrent and Networked Software

Pattern-Oriented Software Architectures for Concurrent and Networked Software

Pattern-Oriented Software Architectures for Concurrent and Networked Software

Pattern-Oriented Software Architectures for Concurrent and Networked Software

Pattern-Oriented Software Architectures for Concurrent and Networked Software

Pattern-Oriented Software Architectures for Concurrent and Networked Software

Pattern-Oriented Software Architectures for Concurrent and Networked Software

Exclusive eLearning Videos ParRus-blogadd to bookmarks

Pattern-Oriented Software Architectures for Concurrent and Networked Software