Subcategories

Jeff Walker – Product Launch Formula 5.0 [repost]

Posted By: ParRus
Jeff Walker – Product Launch Formula 5.0 [repost]

Jeff Walker – Product Launch Formula 5.0
WEBRip | English | MP4 + MP3 + PDF Guides | 852 x 480 | AVC ~500 kbps | 29.970 fps
AAC | 128 Kbps | 44.1 KHz | 2 channels | 13:47:40 | 4.54 GB
Genre: Video Tutorial / Business, Sales, Marketing

Product Launch Formula 5.0 is an effective step-by-step training program that will teach you how to launch your product or service successfully. It will describe in perfect detail what you need to do to generate leads and convert these leads into actual sales. The formula includes a video training where you can learn the sequence and methods you need to follow. You also get an access to Q&A sessions with Jeff Walker himself. You also receive boatloads of information including easy-to-follow case studies and transcripts.
Basically, it is an online course which includes modules delivered via a sleek interface. The training is delivered mainly through videos. This is to be followed up by calls for further coaching and concluded with questions that you need to answer to determine your marketing story.

The cost of Product Launch Formula 5 may seem reasonable for a home study course, but it might be steep for a lot of people. Should you invest in this program? The answer to this question would depend on the value of the product to your business. It will also depend on your business’ ability to generate profit. If you feel that the program would help boost your business, then you should consider investing in it. Certainly, PLF is comprehensive enough to offer valuable marketing ideas for any type of product or service launch.

Product Launch Fomrula 5.0 is about to launch and it is one of the most profitable courses that has ever been created! Jeff Walker and his students have generated over 500 million dollars online with his super powerful “Product Launch Formula.”

For a limited time, you can get your hands on Jeff Walkers PLF 5.0, access to his private mastermind group, personal coaching, and so much more.. Here’s what PLF 5.0 is all about!

What Is Product Launch Formula?

Jeff Walker is one of the top internet marketing gurus on the planet, and for good reason. He created the product launch that has helped thousands of marketers generate nearly a BILLION dollars online.

You read that correctly. Jeff Walker created the Product Launch Formula and it has completely transformed the way money is made online!

If you want to generate thousands of dollars online, build a following of people that truly love and respect you, and create revolutionary products then Product Launch Formula 5.0 may be the way to get started.

What Will You Learn In Product Launch Formula 5.0?

You’re going to learn the exact methods that Jeff and his students have used to generate nearly a billion dollars in online sales including product creation, launching a product, tapping into your market, and of course, generating hundreds of thousands (or millions) of dollars from a single product launch in a 7-21 day period.

Price: $1997

also You can watch my other last: Business-posts

General
Complete name : Lesson 13_ How to Create Effective Email Sequences.mp4
Format : MPEG-4
Format profile : Base Media
Codec ID : isom
File size : 69.4 MiB
Duration : 15mn 17s
Overall bit rate : 635 Kbps
Encoded date : UTC 1970-01-01 00:00:00
Tagged date : UTC 1970-01-01 00:00:00

Video
ID : 1
Format : AVC
Format/Info : Advanced Video Codec
Format profile : Baseline@L3.1
Format settings, CABAC : No
Format settings, ReFrames : 3 frames
Codec ID : avc1
Codec ID/Info : Advanced Video Coding
Duration : 15mn 17s
Bit rate : 500 Kbps
Width : 852 pixels
Height : 480 pixels
Display aspect ratio : 16:9
Frame rate mode : Constant
Frame rate : 29.970 fps
Color space : YUV
Chroma subsampling : 4:2:0
Bit depth : 8 bits
Scan type : Progressive
Bits/(Pixel*Frame) : 0.041
Stream size : 54.9 MiB (79%)
Writing library : x264 core 115 r1937 aa21558
Encoding settings : cabac=0 / ref=3 / deblock=1:0:0 / analyse=0x1:0x111 / me=hex / subme=7 / psy=1 / psy_rd=1.00:0.00 / mixed_ref=1 / me_range=16 / chroma_me=1 / trellis=1 / 8x8dct=0 / cqm=0 / deadzone=21,11 / fast_pskip=1 / chroma_qp_offset=-2 / threads=1 / sliced_threads=0 / nr=0 / decimate=1 / interlaced=0 / bluray_compat=0 / constrained_intra=0 / bframes=0 / weightp=0 / keyint=250 / keyint_min=25 / scenecut=40 / intra_refresh=0 / rc_lookahead=40 / rc=abr / mbtree=1 / bitrate=500 / ratetol=1.0 / qcomp=0.60 / qpmin=10 / qpmax=51 / qpstep=4 / ip_ratio=1.41 / aq=1:1.00
Language : English
Encoded date : UTC 1970-01-01 00:00:00
Tagged date : UTC 1970-01-01 00:00:00

Audio
ID : 2
Format : AAC
Format/Info : Advanced Audio Codec
Format profile : LC
Codec ID : 40
Duration : 15mn 17s
Bit rate mode : Constant
Bit rate : 128 Kbps
Channel(s) : 2 channels
Channel positions : Front: L R
Sampling rate : 44.1 KHz
Compression mode : Lossy
Stream size : 14.0 MiB (20%)
Language : English
Encoded date : UTC 1970-01-01 00:00:00
Tagged date : UTC 1970-01-01 00:00:00

Screenshots

Jeff Walker – Product Launch Formula 5.0 [repost]

Jeff Walker – Product Launch Formula 5.0 [repost]

Jeff Walker – Product Launch Formula 5.0 [repost]

Jeff Walker – Product Launch Formula 5.0 [repost]

Exclusive eLearning Videos ParRus-blogadd to bookmarks

Jeff Walker – Product Launch Formula 5.0 [repost]