Subcategories

ClayTrader - Robotic Trading

Posted By: ParRus
ClayTrader - Robotic Trading

ClayTrader - Robotic Trading
WEBRip | English | MP4 | 1148 x 716 | AVC ~220 Kbps | 30 fps
AAC | 126 Kbps | 44.1 KHz | 2 channels | 16:18:08 | 2.08 GB
Genre: eLearning Video / Forex, Trading, Stock

What Is This Training All About? Are you able to score winning trades on a regular basis? Consistent trading is what allows you to trade for a living while you sit in your underwear at home. Learning to truly use charts is a great step in the right direction of improving consistency. This training is designed to give you the quickest path to understanding charts and establishing trading consistancy.
Long term success as a trader is all about two characteristics: elimination of emotions and consistency. Technical analysis (the use of charts) is the most efficient method to acquire these two attributes.

Ever watch a television show or movie that has stock traders apart of it? Notice what is always on the traders computer screens in the background? Technical charts!

There is a reason professional traders use charts. If they want to keep their job, they need to be consistent and charts allow you to improve in this area.

How do charts allow you to improve? They eliminate your emotions. Getting emotional is the worst thing a trader can do. You may profit every once in a while by making an emotional decision, but in the long run, emotional decisions lead to irrational decisions, and irrational decisions lead to you losing money.

The Robotic Trading educational training is broken down into various categories. There is a recommended viewing order for the videos that is provided with the training .

Whether you have a basic (or none what-so-ever) or intermediate understanding of technical analysis, I am extremely confident you will find value in the training .

For example, if you know absolutely nothing about technical analysis or charts, the first two videos in the recommended viewing order are What is Technical Analysis? followed by, What is a Chart?, so as you can see, even if you had zero experience, the training would start you out at the very beginning.

Each video builds upon the previous lesson so that by the time you are finished, you will not only understand basic and intermediate tactics, but also advanced charting strategies.

The teaching concept of the training is to treat you as a construction project. First start you off with a solid foundation, then add in the the walls and roof, and finally prepare you with all the fancy stuff!

You can find my other useful: Trading-posts

General
Complete name : 15_Relative Strength Index (RSI).mp4
Format : MPEG-4
Format profile : Base Media / Version 2
Codec ID : mp42 (isom/mp42)
File size : 102 MiB
Duration : 40 min 48 s
Overall bit rate mode : Variable
Overall bit rate : 349 kb/s
Encoded date : UTC 2014-09-30 11:51:14
Tagged date : UTC 2014-09-30 11:51:14

Video
ID : 1
Format : AVC
Format/Info : Advanced Video Codec
Format profile : Main@L3.1
Format settings : CABAC / 3 Ref Frames
Format settings, CABAC : Yes
Format settings, RefFrames : 3 frames
Codec ID : avc1
Codec ID/Info : Advanced Video Coding
Duration : 40 min 48 s
Source duration : 40 min 48 s
Bit rate : 220 kb/s
Width : 1 148 pixels
Height : 716 pixels
Display aspect ratio : 16:10
Frame rate mode : Variable
Frame rate : 30.000 FPS
Minimum frame rate : 30.000 FPS
Maximum frame rate : 30.030 FPS
Standard : NTSC
Color space : YUV
Chroma subsampling : 4:2:0
Bit depth : 8 bits
Scan type : Progressive
Bits/(Pixel*Frame) : 0.009
Stream size : 64.4 MiB (63%)
Source stream size : 64.4 MiB (63%)
Language : English
Encoded date : UTC 2014-09-30 11:51:14
Tagged date : UTC 2014-09-30 11:51:14
Color range : Limited
mdhd_Duration : 2448867

Audio
ID : 2
Format : AAC
Format/Info : Advanced Audio Codec
Format profile : LC
Codec ID : mp4a-40-2
Duration : 40 min 48 s
Source duration : 40 min 48 s
Bit rate mode : Variable
Bit rate : 126 kb/s
Maximum bit rate : 226 kb/s
Channel(s) : 2 channels
Channel positions : Front: L R
Sampling rate : 44.1 kHz
Frame rate : 43.066 FPS (1024 SPF)
Compression mode : Lossy
Stream size : 36.7 MiB (36%)
Source stream size : 36.7 MiB (36%)
Language : English
Encoded date : UTC 2014-09-30 11:51:14
Tagged date : UTC 2014-09-30 11:51:14
mdhd_Duration : 2448893

Screenshots

ClayTrader - Robotic Trading

ClayTrader - Robotic Trading

ClayTrader - Robotic Trading

ClayTrader - Robotic Trading

✅ Exclusive eLearning Videos ParRus-blogadd to bookmarks

Feel free to contact me PM
when links are dead or want any repost

ClayTrader - Robotic Trading