Subcategories

David Gibson - The Art Of Mixing

Posted By: ParRus
David Gibson - The Art Of Mixing

David Gibson - The Art Of Mixing
DVD5 | English | VIDEO_TS | 720 x 480 | MPEG2 ~2842 kbps | 29.970 fps
AC-3 | 192 Kbps | 48.0 KHz | 2 channels | 02:39:21 | 4.17 GB
Genre: Video Tutorial / Sound Processing, Music Production, Sound Engineering

David Gibson's hugely popular The Art of Mixing, the book that has taught a generation of mixing engineers, comes to life with over 3 and a half hours of vivid, animated instruction on one feature-packed DVD! With Gibson's exclusive three-dimensional framework, you'll learn the right way to create every style of mix for any style of music.
Topics covered include:
descriptions and visuals of the functions of each piece of studio equipment involved in mixing
• specific concepts behind making a mix that is appropriate for the music and the song
• correlations between audio parameters and the visual paramaeters of the “virtual mixer”
• and much more!

also You can look my other last: Sound Processing-posts

General
Complete name : VTS_02_1.VOB
Format : MPEG-PS
File size : 1 024 MiB
Duration : 46mn 14s
Overall bit rate mode : Variable
Overall bit rate : 3 096 Kbps

Video
ID : 224 (0xE0)
Format : MPEG Video
Format version : Version 2
Format profile : Main@Main
Format settings, BVOP : Yes
Format settings, Matrix : Default
Format settings, GOP : M=3, N=15
Duration : 46mn 14s
Bit rate mode : Variable
Bit rate : 2 842 Kbps
Maximum bit rate : 5 400 Kbps
Width : 720 pixels
Height : 480 pixels
Display aspect ratio : 4:3
Frame rate : 29.970 fps
Standard : NTSC
Color space : YUV
Chroma subsampling : 4:2:0
Bit depth : 8 bits
Scan type : Interlaced
Scan order : Bottom Field First
Compression mode : Lossy
Bits/(Pixel*Frame) : 0.274
Time code of first frame : 00:00:00:00
Time code source : Group of pictures header
Stream size : 940 MiB (92%)
Color primaries : BT.601 NTSC
Transfer characteristics : BT.601
Matrix coefficients : BT.601

Audio
ID : 189 (0xBD)-128 (0x80)
Format : AC-3
Format/Info : Audio Coding 3
Mode extension : CM (complete main)
Format settings, Endianness : Big
Muxing mode : DVD-Video
Duration : 46mn 14s
Bit rate mode : Constant
Bit rate : 192 Kbps
Channel(s) : 2 channels
Channel positions : Front: L R
Sampling rate : 48.0 KHz
Bit depth : 16 bits
Compression mode : Lossy
Stream size : 63.5 MiB (6%)

Menu

Screenshots

David Gibson - The Art Of Mixing

David Gibson - The Art Of Mixing

David Gibson - The Art Of Mixing

David Gibson - The Art Of Mixing

David Gibson - The Art Of Mixing

David Gibson - The Art Of Mixing

Exclusive eLearning Videos ParRus-blogadd to bookmarks

David Gibson - The Art Of Mixing