Subcategories

David D'angelo: Love - The Final Chapter

Posted By: ParRus
David D'angelo: Love - The Final Chapter

David D'angelo: Love - The Final Chapter
WEBRip | English | MP4 + MP3 + Project files | 640 x 480 | AVC ~341 kbps | 29.970 fps
AAC 119 Kbps 44.1 KHz | 2 channels | 25:01:58 | 6.4 GB
Genre: eLearning Video / Dating, Relationships, Sex, Psychology

Want to change your dating experience and get the kind of attention from women that you have not been getting before? Then you should definitely be getting Love The Final Chapter program. It ensures that your dating life turns around totally for good. In the Love The Final Chapter program, you would learn that women’s response to you when you approach them actually depends on the manner of your approach, so it is not your fault that you get rejected, it is just that you do not understand some basic principles about the women that you approach hence you make some fundamental mistakes and the results and response you would get are usually the same. Love The Final Chapter e-book would help you understand the core fundamentals about women and how to understand them and make the right move at the right.
Author Of Love The Final Chapter:

Eben Pagan, most commonly identified as Love The Final Chapter’s founder who was born on 5th of December 1971 in New York City. Today, he is renowned as a successful author, dating coach, and entrepreneur. Initially, he started his career as a real estate agent and began learning and studying sales. He next continued to develop his understanding of sales with marketing skills working in a seminars and training business for entrepreneurship and sales. At this time he had also begun studying dating. His success as an entrepreneur started with the “Love The Final Chapter” brand which he built from 2001 and is still going strong today.

What Is Love The Final Chapter?

Love The Final Chapter program is designed to help you gain mastery over women and understand them well enough to trigger a solid relationship with them. With this program, you will discover that women are not as difficult as they seem. Your failure with women can be attributed to your lack of understanding of the basic principles of approaching women and getting them to go out on a date with you. The secret you need to know about how to successfully become a flirt and getting all the kind of women that you desire are all detailed in the Love The Final Chapter program.

Love The Final Chapter Free

How Does Love The Final Chapter Helps You?

Love The Final Chapter will help you make right the mistakes you did in the past about bonding with the ladies.
Secrets to naturally approaching women, starting conversations and getting dates.
It features great advice on just about any woman’s psychology and it can help men get the right attitudes for their dating success.
It also gives you suggestions on the little things like that you could do to fascinate women, like chivalry, cooking and palmistry.
What Will You Learn From Love The Final Chapter?

It will teach you the one subject you must use to build deep rapport, making her engrossed from the first second.
The program will show you one single super technique that will allow you to keep control of every conversation.
Love The Final Chapter will teach you how to let your inner cynic and frightened wimp diminish from you completely.
Learn why the “panic attack” feeling happens on approaching a new women and how to control and erase this from your mind.
You’ll learn how to develop an attractive personality and how to use humor and other conversation skills to massively attract women.
Pros Of Love The Final Chapter:

Any guy will be able to relate to the advice and get the results that they want.
The program helps you understand the rules and regulations of dating.
Practical and instantly applicable techniques.
Gives you a fundamental understanding of what women really want.
No deceptive trickery, helps you naturally become a chick magnet.
Works for everybody even if you’re fat, ugly and bald.
This book will certainly boost your self belief and may increase your perspective.
Cons Of Love The Final Chapter:

You need to want to change and improve with women.
You need a computer to open and read this book.
Love The Final Chapter Complete Program

Final Word:

Men that want to increase their luck with the ladies have a guide to help them. Love The Final Chapter program offers men a resource to the way women think, react and how to talk to them. These tips can help you appeal to women in ways that you weren’t able to before because of the knowledge it will give you. You don’t have to strike out anymore. If the results are as real as the book claims you will have no problem finding an abundance of dates.

General
Complete name : Day 3 - Session 3.mp4
Format : MPEG-4
Format profile : Base Media
Codec ID : isom
File size : 352 MiB
Duration : 1h 45mn
Overall bit rate mode : Variable
Overall bit rate : 465 Kbps
Encoded date : UTC 2015-02-24 17:14:15
Tagged date : UTC 2015-02-24 17:14:15
Writing application : Lavf51.12.1

Video
ID : 1
Format : AVC
Format/Info : Advanced Video Codec
Format profile : Baseline@L1.3
Format settings, CABAC : No
Format settings, ReFrames : 1 frame
Format settings, GOP : M=1, N=12
Codec ID : avc1
Codec ID/Info : Advanced Video Coding
Duration : 1h 45mn
Bit rate : 341 Kbps
Width : 640 pixels
Height : 480 pixels
Display aspect ratio : 4:3
Frame rate mode : Constant
Frame rate : 29.970 fps
Color space : YUV
Chroma subsampling : 4:2:0
Bit depth : 8 bits
Scan type : Progressive
Bits/(Pixel*Frame) : 0.037
Stream size : 258 MiB (73%)
Encoded date : UTC 2015-02-24 17:14:15
Tagged date : UTC 2015-02-24 17:14:15

Audio
ID : 2
Format : AAC
Format/Info : Advanced Audio Codec
Format profile : LC
Codec ID : 40
Duration : 1h 45mn
Bit rate mode : Variable
Bit rate : 119 Kbps
Channel(s) : 2 channels
Channel positions : Front: L R
Sampling rate : 44.1 KHz
Compression mode : Lossy
Stream size : 90.0 MiB (26%)
Encoded date : UTC 2015-02-24 17:14:15
Tagged date : UTC 2015-02-24 17:14:15
Screenshots

David D'angelo: Love - The Final Chapter

David D'angelo: Love - The Final Chapter

David D'angelo: Love - The Final Chapter

Exclusive eLearning Videos ParRus-blogadd to bookmarks

David D'angelo: Love - The Final Chapter