Subcategories

Anthony Robbins - Ultimate Edge

Posted By: ParRus
Anthony Robbins - Ultimate Edge

Anthony Robbins - Ultimate Edge
3xDVDRip | AVI/xvid, ~1198 kb/s | 720x480 | Duration: ~3 hours | English: MP3, 128 kb/s (2 ch)
Audio CDs in MP3 / English: MP3, 320 kb/s (2 ch) | Duration: 34:24:16 | ISBN-10: N\A
PDF Guides
Size: 11.8 GB | Genre: Video Training / Mindset, Achievement

You can watch the DVDs at any point in the program to reinforce what you’ve learned. In Get the Edge!: 7 Days to Transform your Life, you are personally coached by Tony Robbins about how to get the most out of this program and you will learn how to create muscle growth and shape your body into its ideal form in just 3-6 minutes per week. In Back from the Edge: Creating Everlasting Love DVD, you’ll watch a real life intervention, and see how to identify the real cause of relationship troubles, and how to solve them once and for all. After each audio session, you’ll open your journal to review the key concepts and to take immediate action on the day’s assignments.
Q: What does the Ultimate Edge™ program include?

A: Your program will include:

* Personal Power® Classic: 7-Day Audio Program
* Get the Edge!®: 7-Day Audio Program
* Get the Edge!® DVD: Peak Physical Performance - 7 Days to Transform your Life
* Back from the Edge DVD: Creating Everlasting Love
* Get the Edge!® Personal Journal


Plus 4 FREE GIFTS! ($550 Value!)

* $100 coupon toward any Tony Robbins multi-day event
* Free coaching session (a $200 value)
* Free online personal profile (a $250 value)
* Plus, you’ll receive a free issue of Anthony Robbins' PowerTalk® series when you join the Anthony Robbins' PowerTalk® club.



Q: That’s a lot of information. How do I use the program to maximize my results?

A: Tony recommends the following:

Step 1:

Listen to Day 1 of Get the Edge!® to orient yourself to the entire program and to start making Your Hour of Power a part of your daily experience.


Step 2:

Listen to all 7 days of Personal Power® Classic. This audio program will give you the foundational principles for identifying what it is you really want, breaking through barriers to achieving it, and most importantly, starting the process of conditioning your mind and body for maximum results.


Step 3:

Listen to days 2-7 of Get the Edge!® to complete a deeper process of transformation in the following areas: replace habits that don’t serve you with those that empower you, create outstanding relationships, maximize your health and energy, take control of your emotions, master your finances, and discover your life’s purpose.

General
Complete name : Back From The Edge.avi
Format : AVI
Format/Info : Audio Video Interleave
File size : 995 MiB
Duration : 1h 43mn
Overall bit rate : 1 340 Kbps
Writing application : Lavf51.12.1

Video
ID : 0
Format : xvid
Codec ID : xvid
Duration : 1h 43mn
Bit rate : 1 198 Kbps
Width : 720 pixels
Height : 480 pixels
Display aspect ratio : 3:2
Frame rate : 29.970 fps
Standard : NTSC
Bits/(Pixel*Frame) : 0.116
Stream size : 890 MiB (89%)

Audio
ID : 1
Format : MPEG Audio
Format version : Version 1
Format profile : Layer 3
Mode : Joint stereo
Mode extension : MS Stereo
Codec ID : 55
Codec ID/Hint : MP3
Duration : 1h 43mn
Bit rate mode : Constant
Bit rate : 128 Kbps
Channel(s) : 2 channels
Sampling rate : 48.0 KHz
Compression mode : Lossy
Stream size : 95.1 MiB (10%)
Alignment : Aligned on interleaves
Interleave, duration : 24 ms (0.72 video frame)
Writing library : LAME3.97
Screenshots

Anthony Robbins - Ultimate Edge

Anthony Robbins - Ultimate Edge

Anthony Robbins - Ultimate Edge

For more, Visit my AH-blog

Anthony Robbins - Ultimate Edge
download @nitroflare folder