Subcategories

Ultimate Guitar Techniques - Power Pentatonics

Posted By: ParRus
Ultimate Guitar Techniques - Power Pentatonics

Ultimate Guitar Techniques - Power Pentatonics
DVDRip | English | AVI | 640 x 336 | XviD ~634 kbps | 29.970 fps
MP3 80 Kbps 48.0 KHz | 1 channel | 03:03:45 | 950 MB
Genre: eLearning Video / Guitar lesson

Join Jamie Humphries as he explains the uses of the pentatonic scale, from its basic applications and shape right up to advanced techinques such as pentatonic substitution.
Learn how to imply different modes using familiar shapes and fingerings, while avoiding regular major and minor modes. You'll also learn about alternative pentatonics, as well as how the pentatonic can be used to imply the altered scale.

Content:

Pentatonic Minor Positions & Associated Chords (18:17)
Major Pentatonic Scale Shapes (13:52)
Harmonising The Major Scale & The Modes (15:25)
Pentatonic Substitution (25:44)
Mixolydian & Altered Pentatonics (27:30)
Minor Chords & Pentatonics (34:05)
Jam Track Progression & Scale Ideas (16:43)
Phrasing & Harmony Ideas (27:54)
Performance (2:38)

Jam tracks:

Main Jam Track (2:38)
C Major 7 (1:02)
C Dominant 7 (1:02)
C7 #9 (1:01)
C Minor 7 (1:02)
C Minor 7 b5 (1:02)

also You can find my other last: Guitar Lessons-posts

General
Complete name : 01_-_Pentatonic_Minor_Positions_&_Associated_Chords.avi
Format : AVI
Format/Info : Audio Video Interleave
File size : 94.9 MiB
Duration : 18 min 17 s
Overall bit rate : 726 kb/s
Writing application : VirtualDubMod 1.5.10.1 Рус от Stvens Inc.™ www.stvens.amillo.net (build 2439/release)
Writing library : VirtualDub build 30091/release

Video
ID : 0
Format : MPEG-4 Visual
Format profile : Advanced Simple@L5
Format settings : BVOP1
Format settings, BVOP : 1
Format settings, QPel : No
Format settings, GMC : No warppoints
Format settings, Matrix : Default (MPEG)
Codec ID : XVID
Codec ID/Hint : XviD
Duration : 18 min 17 s
Bit rate : 634 kb/s
Width : 640 pixels
Height : 336 pixels
Display aspect ratio : 1.905
Frame rate : 29.970 (30000/1001) FPS
Color space : YUV
Chroma subsampling : 4:2:0
Bit depth : 8 bits
Scan type : Progressive
Compression mode : Lossy
Bits/(Pixel*Frame) : 0.098
Stream size : 82.9 MiB (87%)
Writing library : XviD 1.2.1 (UTC 2008-12-04)

Audio
ID : 1
Format : MPEG Audio
Format version : Version 1
Format profile : Layer 3
Codec ID : 55
Codec ID/Hint : MP3
Duration : 18 min 17 s
Bit rate mode : Constant
Bit rate : 80.0 kb/s
Channel(s) : 1 channel
Sampling rate : 48.0 kHz
Compression mode : Lossy
Delay relative to video : 8 ms
Stream size : 10.5 MiB (11%)
Alignment : Split accross interleaves
Interleave, duration : 33 ms (1.00 video frame)
Interleave, preload duration : 500 ms
Writing library : LAME3.98.2
Screenshots

Ultimate Guitar Techniques - Power Pentatonics

Ultimate Guitar Techniques - Power Pentatonics

Ultimate Guitar Techniques - Power Pentatonics

Ultimate Guitar Techniques - Power Pentatonics

Ultimate Guitar Techniques - Power Pentatonics

Exclusive eLearning Videos ParRus-blogadd to bookmarks

Ultimate Guitar Techniques - Power Pentatonics