Subcategories

Mario Brown - Video Ads Formula + OTO1-2-3 [repost]

Posted By: ParRus
Mario Brown - Video Ads Formula + OTO1-2-3 [repost]

Mario Brown - Video Ads Formula + OTO1-2-3
WEBRip | English | MP4 + Project files | 640 x 360 | AVC ~112 kbps | 30 fps
AAC | 103 Kbps | 48.0 KHz | 2 channels | 16:31:31 | 9.9 GB
Genre: eLearning Video / Business, Net: Advertising, Web Traffic

Who Else Wants To Know How To Generate Massive Traffic & Cheap But Highly Targeted Leads Via Video Ads From A Platform That Is Getting Over 8 Billion Views Per Day Guaranteed?
MODULE 01: System Overview & The “Private Members-Only” Formula
We get straight to the point by delivering you the PROVEN, income generating formula right here in the first module. You’ll be off to a HUGE HEAD START by completing this lesson, you’ll discover why Video is critical PLUS You’ll get my Mental Toughness Hacks forcing you to execute and implement every lesson in this training for bigger profits & growth.

MODULE 02: My EXACT Best Converting Landing Pages & Tracking
I show you STEP BY STEP how to create highly converting landing pages AND I reveal to you the EXACT landing pages I used during this case study to get a 53% conversion rate with COLD Traffic. You’ll ALSO learn how to set up your tracking correctly in a NEWBIE FRIENDLY way anyone can understand and implement right away.

MODULE 03: Campaign Secrets & Creating The Perfect Ad
How did I get leads for next to nothing, penny clicks and a massive Return of Investment? Now YOU can do the same because I’m walking you through every step of my campaign set up, you literally look over my shoulder. I break down my video ads, I show you how to easily get your video ad up and how to target your ideal customer like a true Pro. Become a targeting ninja with this module and see exactly how I created my ad.

MODULE 04: The Retargeting Revolution
Besides high click through rates, super cheap leads and a great Return of Investment I’m ALSO getting huge exposure, name recognition and authority credibility with each campaign thanks to super simple but POWERFUL retargeting strategies. I give you the EXACT ads I used, I show you how to set this up Step By Step quickly & how to really be perceived as the TOP Authority in your niche thanks to the extremely powerful and low cost marketing strategy.

MODULE 05: The Results aka THE GOLD
This is when YOU BENEFIT The MOST. I’ve spent my hard earned money for you. Tested, tracked and optimized like a maniac to fin the BEST & Most Powerful interests, bidding strategies and formulas. YOU Don’t have to spend a dollar on testing, I’ve done it for you and I REVEAL EVERYTHING.

Which interest is getting me the most clicks, how is Mobile performing vs. Desktop, what was cheaper between Cost Per Click Vs. Cost Per Impression? Guess no more because I have hard earned DATA and now it’s YOURS for the taking, I hand it to you. This is the gold, this is where you save time, money and headaches right away. Use my data and get the best results immediately.

MODULE 06: Creating Powerful, Converting & Engaging Videos
In this Module you’ll learn step by step how I’m creating Engaging & Converting videos that bring me views, clicks, likes, shares and most importantly very affordable leads and SALES.

I have training ready for you here on how to do simple but effective Screen-Capture videos the way I do them for my advertising campaigns. I’ll cover Mac, PC and even show you a 100% FREE tool to crank videos out in a snap. (You’ll LOVE this)

Then I’ll show you how to create in-person videos, I reveal my exact set up and how you can crank out amazing videos with your Smart Phone. Of course, you can also just outsource everything and I’ll show you the best place to do exactly that for next to nothing and FAST.

MODULE 07: CRITICAL: Keeping Your Account Safe & Happy
The secret to running highly profitable, amazing and money making Facebook Ads is to be able to run Facebook Ads. It’s critical that you keep your FB Account safe & sound and there are 3 critical steps you must implement today to do that.

In this training I show you exactly how my students and I run massive traffic in any niche without any issues. If you give Facebook what it wants, it will love you and instead of getting your account shut down they WILL HELP YOU run better and cheaper ads period.

But you have to know what you are doing. Ignore these 3 steps or this module and sooner or later you’ll be in trouble.

Follow the simple yet powerful system I use and you’ll be safe, happy and you’ll get even better results guaranteed!

also You can watch my other last: Business-posts

General
Complete name : 2. Power Editor Crash Course - Creating Your Campaign.MP4
Format : MPEG-4
Format profile : Base Media / Version 2
Codec ID : mp42
File size : 39.6 MiB
Duration : 25mn 12s
Overall bit rate mode : Variable
Overall bit rate : 219 Kbps
Encoded date : UTC 2015-12-07 06:32:37
Tagged date : UTC 2015-12-07 06:32:37

Video
ID : 1
Format : AVC
Format/Info : Advanced Video Codec
Format profile : High@L3.1
Format settings, CABAC : Yes
Format settings, ReFrames : 4 frames
Format settings, GOP : M=4, N=90
Codec ID : avc1
Codec ID/Info : Advanced Video Coding
Duration : 25mn 12s
Bit rate : 112 Kbps
Width : 640 pixels
Height : 360 pixels
Display aspect ratio : 16:9
Frame rate mode : Constant
Frame rate : 30.000 fps
Color space : YUV
Chroma subsampling : 4:2:0
Bit depth : 8 bits
Scan type : Progressive
Bits/(Pixel*Frame) : 0.016
Stream size : 20.2 MiB (51%)
Writing library : x264 core 148 r11 7599210
Encoding settings : cabac=1 / ref=3 / deblock=1:0:0 / analyse=0x3:0x113 / me=hex / subme=7 / psy=1 / psy_rd=1.00:0.00 / mixed_ref=1 / me_range=16 / chroma_me=1 / trellis=1 / 8x8dct=1 / cqm=0 / deadzone=21,11 / fast_pskip=1 / chroma_qp_offset=-2 / threads=11 / lookahead_threads=1 / sliced_threads=0 / nr=0 / decimate=1 / interlaced=0 / bluray_compat=0 / stitchable=1 / constrained_intra=0 / bframes=3 / b_pyramid=2 / b_adapt=1 / b_bias=0 / direct=1 / weightb=1 / open_gop=0 / weightp=2 / keyint=infinite / keyint_min=30 / scenecut=40 / intra_refresh=0 / rc_lookahead=40 / rc=2pass / mbtree=1 / bitrate=112 / ratetol=1.0 / qcomp=0.60 / qpmin=5 / qpmax=69 / qpstep=4 / cplxblur=20.0 / qblur=0.5 / vbv_maxrate=825 / vbv_bufsize=900 / nal_hrd=none / filler=0 / ip_ratio=1.40 / aq=1:1.00
Encoded date : UTC 2015-12-07 06:32:37
Tagged date : UTC 2015-12-07 06:32:37
Color primaries : BT.601 PAL
Transfer characteristics : BT.470 System B, BT.470 System G
Matrix coefficients : BT.601

Audio
ID : 2
Format : AAC
Format/Info : Advanced Audio Codec
Format profile : LC
Codec ID : 40
Duration : 25mn 12s
Bit rate mode : Variable
Bit rate : 103 Kbps
Channel(s) : 2 channels
Channel positions : Front: L R
Sampling rate : 48.0 KHz
Compression mode : Lossy
Delay relative to video : 67ms
Stream size : 18.6 MiB (47%)
Encoded date : UTC 2015-12-07 06:32:37
Tagged date : UTC 2015-12-07 06:32:37

Screenshots

Mario Brown - Video Ads Formula + OTO1-2-3 [repost]

Mario Brown - Video Ads Formula + OTO1-2-3 [repost]

Mario Brown - Video Ads Formula + OTO1-2-3 [repost]

Mario Brown - Video Ads Formula + OTO1-2-3 [repost]

Mario Brown - Video Ads Formula + OTO1-2-3 [repost]

Exclusive eLearning Videos ParRus-blogadd to bookmarks

Mario Brown - Video Ads Formula + OTO1-2-3 [repost]