Bruce Springsteen & The E Street Band - 2008-08-23 Scottrade Center, St. Louis, MO (2017) [Official Digital Download]

Posted By: SERTiL
Bruce Springsteen & The E Street Band - 2008-08-23 Scottrade Center, St. Louis, MO (2017) [Official Digital Download]

Bruce Springsteen & The E Street Band - 2008-08-23 Scottrade Center, St. Louis, MO (2017)
FLAC (tracks) 24-bit/48 kHz | Time - 195:22 minutes | 2.47 GB
live.brucespringsteen.net, Official Digital Download | Artwork: Front Cover

"On the 2007-08 Magic tour, fans began bringing song-request signs. Bruce seemed to revel in the challenge, while the suggestions also appeared to inspire him to resurrect songs he hadn’t played in decades. There’s no finer show to capture this fan-artist dynamic than this outstanding performance in St. Louis on 8/23/2008 including The Crystals’ "Then She Kissed Me" and Chuck Berry's "Little Queenie".

Tracklist:

Set One:
01-Then She Kissed Me (4:53)
02-Radio Nowhere (3:53)
03-Out in the Street (5:55)
04-Adam Raised a Cain (5:22)
05-Spirit In The Night (8:05)
06-Rendezvous (6:08)
07-For You (7:09)
08-Mountain Of Love (4:34)
09-Backstreets (7:31)
10-Gypsy Biker (6:39)
11-Because the Night (6:17)
12-She's the One (6:13)

Set Two:
01-Livin' In The Future (6:25)
02-Cover Me (4:44)
03-Mary's Place (15:12)
04-Drive All Night (9:27)
05-The Rising (5:06)
06-Last To Die (4:26)
07-Long Walk Home (6:29)
08-Badlands (10:37)
09-Girls In Their Summer Clothes (5:28)

Set Three:
01-Jungleland (11:03)
02-Detroit Medley (4:52)
03-Born to Run (5:39)
04-Dancing in the Dark (6:02)
05-American Land (9:30)
06-Thunder Road (6:10)
07-Little Queenie (7:39)
08-Twist and Shout (4:07)

Personnel:
Bruce Springsteen – Lead vocal, electric and acoustic guitars, harmonica;
Roy Bittan – Piano, electric keyboards
Clarence Clemons – Saxophones, percussion, vocal
Charlie Giordano – Organ, electric keyboards
Nils Lofgren – Electric and acoustic guitar, pedal steel, vocal
Garry Tallent – Bass
Stevie Van Zandt – Electric guitars, mandolin, vocal
Max Weinberg – Drums
Patti Scialfa – background vocals and acoustic guitar

foobar2000 1.3.7 / Dynamic Range Meter 1.1.1
log date: 2018-01-14 18:21:09

––––––––––––––––––––––––––––––––––––––––
Analyzed: Bruce Springsteen & The E Street Band / 2008/08/23 St. Louis, MO
––––––––––––––––––––––––––––––––––––––––

DR Peak RMS Duration Track
––––––––––––––––––––––––––––––––––––––––
DR7 -0.20 dB -9.65 dB 4:53 01-Then She Kissed Me
DR6 -0.20 dB -7.66 dB 3:53 02-Radio Nowhere
DR7 -0.21 dB -8.50 dB 5:55 03-Out in the Street
DR7 -0.21 dB -8.02 dB 5:22 04-Adam Raised a Cain
DR7 -0.20 dB -9.27 dB 8:05 05-Spirit In The Night
DR7 -0.20 dB -9.47 dB 6:08 06-Rendezvous
DR7 -0.20 dB -9.44 dB 7:09 07-For You
DR7 -0.20 dB -9.79 dB 4:34 08-Mountain Of Love
DR8 -0.21 dB -9.66 dB 7:31 09-Backstreets
DR6 -0.20 dB -8.33 dB 6:39 10-Gypsy Biker
DR7 -0.20 dB -8.66 dB 6:17 11-Because the Night
DR6 -0.20 dB -8.19 dB 6:13 12-She's the One
DR8 -0.20 dB -10.67 dB 6:25 01-Livin' In The Future
DR8 -0.20 dB -8.77 dB 4:44 02-Cover Me
DR8 -0.20 dB -10.75 dB 15:12 03-Mary's Place
DR8 -0.20 dB -11.98 dB 9:27 04-Drive All Night
DR7 -0.21 dB -9.05 dB 5:06 05-The Rising
DR7 -0.20 dB -7.91 dB 4:26 06-Last To Die
DR7 -0.20 dB -8.55 dB 6:29 07-Long Walk Home
DR7 -0.20 dB -9.65 dB 10:37 08-Badlands
DR8 -0.21 dB -9.67 dB 5:28 09-Girls in Their Summer Clothes
DR7 -0.20 dB -10.52 dB 11:03 01-Jungleland
DR6 -0.20 dB -7.62 dB 4:52 02-Detroit Medley
DR7 -0.20 dB -7.78 dB 5:39 03-Born to Run
DR7 -0.20 dB -8.55 dB 6:02 04-Dancing in the Dark
DR7 -0.20 dB -9.65 dB 9:30 05-American Land
DR7 -0.20 dB -9.41 dB 6:09 06-Thunder Road
DR7 -0.20 dB -8.68 dB 7:39 07-Little Queenie
DR7 -0.20 dB -9.16 dB 4:07 08-Twist and Shout
––––––––––––––––––––––––––––––––––––––––

Number of tracks: 29
Official DR value: DR7

Samplerate: 48000 Hz
Channels: 2
Bits per sample: 24
Bitrate: 1845 kbps
Codec: FLAC
================================================================================


Thanks to the Original customer.