Chas & Dave - A Little Bit of Us (2018) [Official Digital Download]

Posted By: SERTiL
Chas & Dave - A Little Bit of Us (2018) [Official Digital Download]

Chas & Dave - A Little Bit of Us (2018)
FLAC (tracks) 24-bit/48 kHz | Time - 33:42 minutes | 428 MB
Studio Master, Official Digital Download | Artwork: Front Cover

2018 release from the veteran British duo. A Little Bit of Us is Chas & Dave's first album in over 30 years to feature brand-new Chas & Dave songs. Says Chas Hodges: "The bloke who owns the studio where we recorded much of this album is Brian Juniper. He introduced me to Dave back in 1963 - Dave was at Junior School with him. I was at Senior School with him when, as 13 year olds, we started a skiffle group over 60 years ago." The album features a mix of new Chas & Dave originals and live favorites.



Tracklist:
1. A Little Bit of Me 03:08
2. Come on Charlie 02:34
3. When You Wore a Tulip 02:03
4. Wonder Where He is Now? 03:28
5. Nagasaki 01:21
6. Dry Bones 02:30
7. Nothing You Can Do 02:39
8. Modern Robin Hood 04:05
9. Last Kiss 02:55
10. My Little Grass Shack 01:06
11. Roses of Picardy (Piano Solo) 03:12
12. Sling Your Hook (Chas's Message to Cancer) 02:30
13. Why Not Me? (Bonus Track Feat. Kate Garner) 02:11

foobar2000 1.3.7 / Dynamic Range Meter 1.1.1
log date: 2018-04-21 16:45:28

––––––––––––––––––––––––––––––––––––––––
Analyzed: Chas & Dave / A Little Bit of Us
––––––––––––––––––––––––––––––––––––––––

DR Peak RMS Duration Track
––––––––––––––––––––––––––––––––––––––––
DR10 -0.09 dB -11.68 dB 3:08 01-A Little Bit of Me
DR9 -0.09 dB -10.38 dB 2:34 02-Come on Charlie
DR10 -0.09 dB -11.56 dB 2:04 03-When You Wore a Tulip
DR12 -0.09 dB -13.61 dB 3:28 04-Wonder Where He is Now?
DR11 -0.09 dB -12.71 dB 1:21 05-Nagasaki
DR8 -0.09 dB -10.06 dB 2:31 06-Dry Bones
DR6 -0.09 dB -8.51 dB 2:40 07-Nothing You Can Do
DR9 -0.09 dB -11.48 dB 4:06 08-Modern Robin Hood
DR8 -0.09 dB -9.11 dB 2:56 09-Last Kiss
DR11 -0.09 dB -12.99 dB 1:06 10-My Little Grass Shack
DR9 -0.09 dB -10.51 dB 3:12 11-Roses of Picardy (Piano Solo)
DR10 -0.09 dB -12.12 dB 2:30 12-Sling Your Hook (Chas's Message to Cancer)
DR8 -0.09 dB -10.46 dB 2:11 13-Why Not Me? (Bonus Track Feat. Kate Garner)
––––––––––––––––––––––––––––––––––––––––

Number of tracks: 13
Official DR value: DR9

Samplerate: 48000 Hz
Channels: 2
Bits per sample: 24
Bitrate: 1675 kbps
Codec: FLAC
================================================================================


Thanks to the Original customer.