Barbra Streisand & Kris Kristofferson - A Star Is Born (1976/2015) [Official Digital Download]

Posted By: SERTiL
Barbra Streisand & Kris Kristofferson - A Star Is Born (1976/2015) [Official Digital Download]

Barbra Streisand & Kris Kristofferson - A Star Is Born (1976/2015)
FLAC (tracks) 24-bit/44.1kHz | Time - 41:33 minutes | 472 MB
Studio Master, Official Digital Download | Artwork: Front Cover

A Star Is Born is the soundtrack album to the motion picture of the same name. Of course, the main drawing card here is "Love Theme From 'A Star Is Born' (Evergreen)", the number one hit. Spurred by the hit single and the box office success of the film, A Star Is Born was the best-selling album of Barbra Streisand's career up to this point. "Evergreen", co-written by Streisand and Williams, won Grammy Awards for Song of the Year and Best Female Pop Vocal.

Though it is credited to Barbra Streisand and Kris Kristofferson, A Star Is Born is in effect the soundtrack album to the motion picture of the same name, a rock-oriented retelling of the story that had been filmed three times before. That it is not billed as a soundtrack only indicates that the album contains the songs featured in the film, but not the score. Of course, the main drawing card here is "Love Theme From 'A Star Is Born' (Evergreen)," the number one hit. But the rest of the album is slight. Streisand isn't much of a rock singer and these aren't much as rock songs (the songwriters include Paul Williams and Rupert Holmes). For his part, Kristofferson sounds even more gravelly than usual, and he isn't even growling his own compositions, which doubtless would have been superior to what he's been given to sing. Nevertheless, spurred by the hit single and the box office success of the film, A Star Is Born was the best-selling album of Barbra Streisand's career up to this point. ["Evergreen," co-written by Streisand and Williams, won Grammy Awards for Song of the Year and Best Female Pop Vocal.] ~ AllMusic Review by William Ruhlmann

Tracklist:
01. Watch Closely Now
02. Queen Bee
03. Everything
04. Lost Inside of You
05. Hellacious Acres
06. Evergreen (Love Theme from, "A Star Is Born")
07. The Woman in the Moon
08. I Believe in Love
09. Crippled Crow
10. Finale: With One More Look at You / Watch Closely Now
11. Evergreen (Love Theme from, "A Star Is Born") (Reprise)

foobar2000 1.3.7 / Dynamic Range Meter 1.1.1
log date: 2018-01-10 20:42:58

––––––––––––––––––––––––––––––––––––––––
Analyzed: Barbra Streisand & Kris Kristofferson / A Star Is Born (1-4)
Barbra Streisand / A Star Is Born (5-9)
Kris Kristofferson / A Star Is Born (10-11)
––––––––––––––––––––––––––––––––––––––––

DR Peak RMS Duration Track
––––––––––––––––––––––––––––––––––––––––
DR9 -0.30 dB -11.57 dB 3:49 01-Watch Closely Now
DR9 -0.80 dB -12.99 dB 2:55 04-Lost Inside of You
DR7 -0.60 dB -12.28 dB 7:43 10-Finale: With One More Look at You / Watch Closely Now
DR9 -0.60 dB -12.64 dB 1:49 11-Evergreen (Love Theme from, "A Star Is Born") (Reprise)
DR10 -1.00 dB -13.23 dB 3:56 02-Queen Bee
DR10 -0.60 dB -13.35 dB 3:51 03-Everything
DR8 -0.70 dB -12.25 dB 3:05 06-Evergreen (Love Theme from, "A Star Is Born")
DR8 -0.60 dB -12.49 dB 4:50 07-The Woman in the Moon
DR8 -1.20 dB -11.37 dB 3:14 08-I Believe in Love
DR9 -0.70 dB -12.08 dB 2:59 05-Hellacious Acres
DR9 -0.70 dB -11.92 dB 3:31 09-Crippled Crow
––––––––––––––––––––––––––––––––––––––––

Number of tracks: 11
Official DR value: DR9

Samplerate: 44100 Hz
Channels: 2
Bits per sample: 24
Bitrate: 1643 kbps
Codec: FLAC
================================================================================


Thanks to the Original customer.