Al Wilson - Count the Days (1979/2017) [Official Digital Download]

Posted By: Pisulik
Al Wilson - Count the Days (1979/2017) [Official Digital Download]

Al Wilson - Count the Days (1979/2017)
FLAC (tracks) 24-bit/44.1 kHz | Time - 36:46 minutes | 424 MB
Studio Master, Official Digital Download | Artwork: Front cover

American soul music veteran singer Al Wilson had his first big hit in 1968 with "The Snake" and remained strong on the charts throughout the late 1960's and into the early 70's. Today he is best known for his 1973 platinum selling album "Show And Tell," which was considered a certified soul masterpiece. Al's endearing style captured fans on both sides of the Atlantic and he continued to make great soul music throughout the decade. Presented here is the original 1979 hit album "Count The Days," featuring fan favorites "Earthquake," "You Got It" and other soul gems.

Tracklist:

01. Earthquake
02. You Got It
03. Count the Days
04. Save a Dance
05. Is This the End
06. Since I'm Without You
07. You Really Turn Me On
08. Tomorrow's Sun

foobar2000 1.3.7 / Dynamic Range Meter 1.1.1
log date: 2018-01-01 09:16:04

––––––––––––––––––––––––––––––––––––––––
Analyzed: Al Wilson / Count the Days
––––––––––––––––––––––––––––––––––––––––

DR Peak RMS Duration Track
––––––––––––––––––––––––––––––––––––––––
DR13 -1.19 dB -15.87 dB 5:53 01-Earthquake
DR11 -1.19 dB -13.58 dB 4:07 02-You Got It
DR10 -1.15 dB -13.09 dB 6:06 03-Count the Days
DR10 -1.19 dB -12.90 dB 4:04 04-Save a Dance
DR11 -1.15 dB -15.36 dB 4:11 05-Is This the End
DR11 -1.19 dB -14.53 dB 4:16 06-Since I'm Without You
DR11 -1.15 dB -13.25 dB 3:54 07-You Really Turn Me On
DR12 -1.22 dB -15.33 dB 4:15 08-Tomorrow's Sun
––––––––––––––––––––––––––––––––––––––––

Number of tracks: 8
Official DR value: DR11

Samplerate: 44100 Hz
Channels: 2
Bits per sample: 24
Bitrate: 1454 kbps
Codec: FLAC
================================================================================


All thanks go to the original releaser