Al Wilson - Show and Tell: The Best of Al Wilson (2006) [Official Digital Download]

Posted By: Pisulik
Al Wilson - Show and Tell: The Best of Al Wilson (2006) [Official Digital Download]

Al Wilson - Show and Tell: The Best of Al Wilson (2006)
FLAC (tracks) 24-bit/44.1 kHz | Time - 59:04 minutes | 644 MB
Studio Master, Official Digital Download | Artwork: Front cover

Al Wilson gets unfairly tagged as a "one hit wonder" due to his huge hit, the brilliant "Show and Tell." But as this "Best Of" compilation demonstrates, he had a bag full of other good songs too, all of which mined a delicious soulful groove. Of course this set includes "Show and Tell" but it also has "La La Peace Song" which was actually a minor hit the same year. Other highlights include "Willoughby Brook Road," "Magic of Your Mind" and some interesting interprations of classics like "I Won't Last a Day Without You" and "Born on the Bayou." One reviewer complained that this was not a true "best of" Al Wilson collection because it doesn't contain his acclaimed late 60s and early 70s material.

Tracklist:

01. Show and Tell
02. La La Peace Song
03. Keep on Lovin' You
04. I Won't Last a Day Without You / Let Me Be the One
05. Amen Brother
06. Touch and Go
07. You Do the Right Things
08. I'm out to Get You
09. Born on the Bayou
10. Listen to Me
11. Settle Me Down
12. Willoughby Brook Road
13. Magic of Your Mind
14. Queen of the Ghetto
15. Passport
16. I'm a Weak Man
17. Goin' Through the Motions
18. A Stone's Throw

foobar2000 1.3.7 / Dynamic Range Meter 1.1.1
log date: 2018-01-01 09:23:10

––––––––––––––––––––––––––––––––––––––––
Analyzed: Al Wilson / Show and Tell: The Best of Al Wilson
––––––––––––––––––––––––––––––––––––––––

DR Peak RMS Duration Track
––––––––––––––––––––––––––––––––––––––––
DR10 -1.25 dB -13.11 dB 3:28 01-Show and Tell
DR9 -1.25 dB -12.33 dB 3:23 02-La La Peace Song
DR10 -1.25 dB -12.54 dB 4:19 03-Keep on Lovin' You
DR10 -1.25 dB -13.23 dB 5:53 04-I Won't Last a Day Without You / Let Me Be the One
DR9 -1.25 dB -12.46 dB 2:24 05-Amen Brother
DR9 -1.25 dB -11.47 dB 3:07 06-Touch and Go
DR10 -1.25 dB -13.15 dB 2:38 07-You Do the Right Things
DR8 -1.25 dB -11.27 dB 3:35 08-I'm out to Get You
DR8 -1.25 dB -11.10 dB 2:56 09-Born on the Bayou
DR8 -1.25 dB -10.82 dB 3:16 10-Listen to Me
DR8 -1.25 dB -12.36 dB 2:37 11-Settle Me Down
DR9 -1.25 dB -11.85 dB 3:43 12-Willoughby Brook Road
DR9 -1.25 dB -12.32 dB 2:31 13-Magic of Your Mind
DR9 -1.25 dB -11.52 dB 2:51 14-Queen of the Ghetto
DR9 -1.25 dB -11.81 dB 2:38 15-Passport
DR9 -1.25 dB -12.22 dB 3:25 16-I'm a Weak Man
DR9 -1.25 dB -11.33 dB 3:16 17-Goin' Through the Motions
DR10 -1.25 dB -13.12 dB 3:04 18-A Stone's Throw
––––––––––––––––––––––––––––––––––––––––

Number of tracks: 18
Official DR value: DR9

Samplerate: 44100 Hz
Channels: 2
Bits per sample: 24
Bitrate: 1565 kbps
Codec: FLAC
================================================================================


All thanks go to the original releaser