Alberto Ferro - Alberto Ferro Live at the Queen Elisabeth Competition 2016 (2017) [Official Digital Download 24/88]

Posted By: SERTiL
Alberto Ferro - Alberto Ferro Live at the Queen Elisabeth Competition 2016 (2017) [Official Digital Download 24/88]

Alberto Ferro - Alberto Ferro Live at the Queen Elisabeth Competition 2016 (2017)
FLAC (tracks) 24-bit/88.2 kHz | Time - 67:30 minutes | 1.01 GB
Studio Master, Official Digital Download | Artwork: Front Cover

What would classical music in our country be without the Queen Elisabeth Competition? The ‘mother of all music competitions’ is this year given over to the piano. As is customary in recent years the National Orchestra is conducted by the American conductor Marin Alsop during the final of the competition. The musical director of the Baltimore Symphony Orchestra has also worked with the New York Philharmonic, the Los Angeles Philharmonic, the Royal Concertgebouworchestra and the Filarmonica della Scala in Milan. Along with the musicians in the orchestra she accompanies the twelve remaining candidates to the final victory. For the latter, as well as an extremely difficult exercise, it could be a springboard to a great musical career.

In alphabetical order, the finalists are : Alexander Beyer, Alberto Ferro, Chi Ho Han, Atsushi Imada, Aljosa Jurinic, Yoonji Kim, Henry Kramer, Okada Kana, Dmitry Shishkin, Hans H. Suh, Lukas Vondracek and Larry Weng.

Tracklist:
01. Piano Concerto No. 21 in C Major, KV. 467: I. Allegro maestoso (Live)
02. Piano Concerto No. 21 in C Major, KV. 467: II. Andante (Live)
03. Piano Concerto No. 21 in C Major, KV. 467: III. Allegro vivace assai (Live)
04. Hungarian Rhapsody No. 12 in C-Sharp Minor, S. 244/12 (Live)
05. Piano Concerto No. 1 in F-Sharp Minor, Op. 1: I. Vivace (Live)
06. Piano Concerto No. 1 in F-Sharp Minor, Op. 1: II. Andante (Live)
07. Piano Concerto No. 1 in F-Sharp Minor, Op. 1: III. Allegro vivace (Live)

Composers:
Liszt, Ferencz (1811-86)
Mozart, Wolfgang Amadeus (1756-91)
Rachmaninov, Sergey Vassilievich (1873-1943)

Personnel:
Alberto Ferro, piano
Orchestre Royal de Champs de Wallonie
National Orchester of Belgium
Paul Meyer, conductor
Marin Alsop, conductor

foobar2000 1.3.7 / Dynamic Range Meter 1.1.1
log date: 2018-03-31 17:54:40

––––––––––––––––––––––––––––––––––––––––
Analyzed: Alberto Ferro / Alberto Ferro Live at the Queen Elisabeth Competition 2016 (Live)
––––––––––––––––––––––––––––––––––––––––

DR Peak RMS Duration Track
––––––––––––––––––––––––––––––––––––––––
DR14 -0.63 dB -20.38 dB 15:06 01-Piano Concerto No. 21 in C Major, KV. 467: I. Allegro maestoso (Live)
DR13 -8.59 dB -25.70 dB 6:45 02-Piano Concerto No. 21 in C Major, KV. 467: II. Andante (Live)
DR16 0.00 dB -21.17 dB 7:11 03-Piano Concerto No. 21 in C Major, KV. 467: III. Allegro vivace assai (Live)
DR12 -0.68 dB -18.26 dB 10:19 04-Hungarian Rhapsody No. 12 in C-Sharp Minor, S. 244/12 (Live)
DR14 -1.20 dB -19.85 dB 13:21 05-Piano Concerto No. 1 in F-Sharp Minor, Op. 1: I. Vivace (Live)
DR13 -5.82 dB -24.99 dB 6:31 06-Piano Concerto No. 1 in F-Sharp Minor, Op. 1: II. Andante (Live)
DR14 -0.87 dB -20.17 dB 8:22 07-Piano Concerto No. 1 in F-Sharp Minor, Op. 1: III. Allegro vivace (Live)
––––––––––––––––––––––––––––––––––––––––

Number of tracks: 7
Official DR value: DR14

Samplerate: 88200 Hz
Channels: 2
Bits per sample: 24
Bitrate: 2203 kbps
Codec: FLAC
================================================================================


Thanks to the Original customer.