Jordi Savall - Alfonso X The Wise: Cantigas de Santa Maria (1993/2017) [Official Digital Download 24/88]

Posted By: SERTiL
Jordi Savall - Alfonso X The Wise: Cantigas de Santa Maria (1993/2017) [Official Digital Download 24/88]

Jordi Savall - Alfonso X The Wise: Cantigas de Santa Maria (1993/2017)
FLAC (tracks) 24-bit/88.2 kHz | Time - 77:58 minutes | 1.17 GB
Studio Master, Official Digital Download | Artwork: Digital booklet

The 'Cantigas de Santa Maria' (Canticles of Holy Mary) are 420 poems with musical notation, written during the reign of Alfonso X The Wise (1221–1284) and often attributed to him. It is one of the largest collections of monophonic songs from the Middle Ages and is characterised by the mention of the Virgin Mary in every song.

The reissue in remastered multichannel sound of this 1993 landmark recording enables us to hear Jordi Savall and his ensembles at their best. Instrumental and vocal pieces alternate and paint a vivid picture of a repertoire, that contributed much to the birth of Western music.

Tracklist:

King Alfonso X de Castille 'el sabio' (1221-84)

01. Cantigas de Santa Maria, CSM 400: Pero cantigas de loor (Remastered)
02. Cantigas de Santa Maria, CSM 123: Instrumental (Remastered)
03. Cantigas de Santa Maria, CSM 176: Introducción (Remastered)
04. Cantigas de Santa Maria, CSM 100: Santa Maria, strela do dia (Remastered)
05. Cantigas de Santa Maria, CSM 209: Muito faz grand'erro (Remastered)
06. Cantigas de Santa Maria, CSM 18: Por nos de dulta tirar (Remastered)
07. Cantigas de Santa Maria, CSM 142: Instrumental (Remastered)
08. Cantigas de Santa Maria, CSM 163: Pode por Santa Maria (Remastered)
09. Cantigas de Santa Maria, CSM 37: Miragres fremosos faz por nos (Remastered)
10. Cantigas de Santa Maria, CSM 77-119: Instrumental (Remastered)
11. Cantigas de Santa Maria, CSM 126: De toda chaga ben pode guarir (Remastered)
12. Cantigas de Santa Maria, CSM 181: Pero que seja a gente (Remastered)
13. Cantigas de Santa Maria, CSM 383: O ffondo do mar tan chão (Remastered)
14. Cantigas de Santa Maria, CSM 176: Conclusión (Remastered)

Personnel:
Jordi Savall (viola da gamba)
Hesperion XXI (early music ensemble)
La Capella Reial de Catalunya (early music ensemble)

foobar2000 1.3.7 / Dynamic Range Meter 1.1.1
log date: 2017-10-24 18:34:02

––––––––––––––––––––––––––––––––––––––––
Analyzed: Jordi Savall / Cantigas de Santa Maria (Remastered)
––––––––––––––––––––––––––––––––––––––––

DR Peak RMS Duration Track
––––––––––––––––––––––––––––––––––––––––
DR14 -0.36 dB -18.67 dB 3:50 01-Cantigas de Santa Maria, CSM 400: Pero cantigas de loor (Remastered)
DR12 -7.82 dB -24.76 dB 3:42 02-Cantigas de Santa Maria, CSM 123: Instrumental (Remastered)
DR10 -14.90 dB -30.96 dB 1:39 03-Cantigas de Santa Maria, CSM 176: Introducción (Remastered)
DR15 -2.30 dB -23.78 dB 2:58 04-Cantigas de Santa Maria, CSM 100: Santa Maria, strela do dia (Remastered)
DR13 -7.25 dB -24.97 dB 12:28 05-Cantigas de Santa Maria, CSM 209: Muito faz grand'erro (Remastered)
DR16 -0.16 dB -20.43 dB 8:07 06-Cantigas de Santa Maria, CSM 18: Por nos de dulta tirar (Remastered)
DR13 -18.15 dB -37.20 dB 4:13 07-Cantigas de Santa Maria, CSM 142: Instrumental (Remastered)
DR12 -5.74 dB -24.27 dB 5:07 08-Cantigas de Santa Maria, CSM 163: Pode por Santa Maria (Remastered)
DR17 -0.17 dB -22.12 dB 4:15 09-Cantigas de Santa Maria, CSM 37: Miragres fremosos faz por nos (Remastered)
DR13 -7.51 dB -26.22 dB 4:09 10-Cantigas de Santa Maria, CSM 77-119: Instrumental (Remastered)
DR16 -4.43 dB -26.51 dB 10:05 11-Cantigas de Santa Maria, CSM 126: De toda chaga ben pode guarir (Remastered)
DR15 -0.09 dB -20.58 dB 6:20 12-Cantigas de Santa Maria, CSM 181: Pero que seja a gente (Remastered)
DR14 -0.76 dB -20.47 dB 8:14 13-Cantigas de Santa Maria, CSM 383: O ffondo do mar tan chão (Remastered)
DR10 -13.29 dB -28.67 dB 2:54 14-Cantigas de Santa Maria, CSM 176: Conclusión (Remastered)
––––––––––––––––––––––––––––––––––––––––

Number of tracks: 14
Official DR value: DR14

Samplerate: 88200 Hz
Channels: 2
Bits per sample: 24
Bitrate: 1901 kbps
Codec: FLAC
================================================================================


Thanks to the Original customer.