Alice Cooper - Hey Stoopid (1991/2017) [Official Digital Download 24/192]

Posted By: Pisulik
Alice Cooper - Hey Stoopid (1991/2017) [Official Digital Download 24/192]

Alice Cooper - Hey Stoopid (1991/2017)
FLAC (tracks) 24-bit/192 kHz | Time - 56:16 minutes | 1,81 GB
Studio Master, Official Digital Download | Artwork: Front cover

Coming off of his biggest commercial success in years, 1989's „Trash“, Alice Cooper decided to follow the same accessible, radio-ready formula for its follow-up, 1991's „Hey Stoopid“. Producer Peter Collins smoothed out the edges of Alice's music for mass consumption. Like its predecessor, „Hey Stoopid“ features many guest appearances from some of the day's top rockers Guns N' Roses' Slash; six-string wizards Joe Satriani, Steve Vai, and Vinnie Moore; Motley Crue's Mick Mars and Nikki Sixx; and the legendary Ozzy Osbourne all lend a hand. The album's opening title track was a rocker containing lyrics that dealt with the dangers of hard drug use, and was a popular video on MTV's Saturday night heavy metal show, HEADBANGER'S BALL. Other highlights include "Love's a Loaded Gun," "Burning Our Bed," "Feed My Frankenstein," and "Die For You."

Tracklist:

01. Hey Stoopid
02. Love's a Loaded Gun
03. Snakebite
04. Burning Our Bed
05. Dangerous Tonight
06. Might As Well Be On Mars
07. Feed My Frankenstein
08. Hurricane Years
09. Little By Little
10. Die For You
11. Dirty Dreams
12. Wind-Up Toy

Personnel:

Alice Cooper - vocals, harmonica
Joe Satriani - guitar (tracks 1, 4, 7, 9, 12)
Stef Burns - guitar (tracks 1 to 10, 12)
John Webster - keyboards (tracks 1 to 5, 7, 9, 10, 12)
Robert Bailey - keyboards (tracks 2, 5 to 8, 10, 12)
Jai Winding - keyboards (tracks 6)
Steve Croes - Synthesizer (Synclavier) (tracks 1, 10)
Hugh McDonald - bass (tracks 1 to 6, 8 to 12)
Mickey Curry - drums
Zachary Nevel - backing vocals

foobar2000 1.3.7 / Dynamic Range Meter 1.1.1
log date: 2017-10-25 14:19:41

––––––––––––––––––––––––––––––––––––––––
Analyzed: Alice Cooper / Hey Stoopid
––––––––––––––––––––––––––––––––––––––––

DR Peak RMS Duration Track
––––––––––––––––––––––––––––––––––––––––
DR10 0.00 dB -11.29 dB 4:34 01-Hey Stoopid
DR11 -0.02 dB -12.38 dB 4:11 02-Love's a Loaded Gun
DR10 -0.02 dB -11.47 dB 4:33 03-Snakebite
DR13 -2.52 dB -17.52 dB 4:35 04-Burning Our Bed
DR11 -0.02 dB -11.92 dB 4:42 05-Dangerous Tonight
DR10 -0.02 dB -12.15 dB 7:09 06-Might As Well Be On Mars
DR10 -0.02 dB -11.29 dB 4:45 07-Feed My Frankenstein
DR11 -0.02 dB -11.45 dB 3:59 08-Hurricane Years
DR11 -0.02 dB -12.30 dB 4:35 09-Little By Little
DR10 -0.02 dB -12.26 dB 4:17 10-Die For You
DR10 -0.02 dB -11.23 dB 3:30 11-Dirty Dreams
DR11 -0.02 dB -12.14 dB 5:27 12-Wind-Up Toy
––––––––––––––––––––––––––––––––––––––––

Number of tracks: 12
Official DR value: DR11

Samplerate: 192000 Hz
Channels: 2
Bits per sample: 24
Bitrate: 4515 kbps
Codec: FLAC
================================================================================


All thanks go to the original releaser