Alicia Keys - HERE (Deluxe) (2016) [TR24][OF]

Posted By: SERTiL
Alicia Keys - HERE (Deluxe) (2016) [TR24][OF]

Alicia Keys - HERE (Deluxe)
R&B, Soul | FLAC (tracks) 24-bit/44.1 kHz | 52:33 min | 586 MB | Front Cover
Label: RCA Records Label | Tracks: 18 | Rls.date: 2016

"On this album, I've arrived HERE," Keys says. "A place where I'm willing to truthfully look at myself in the mirror and to also see the reality of who we have become in this world. The good, the ugly, the shadows and the light. I've come to realize that in order for us to grow and to understand and accept each other we have to recognize the complexity of ourselves. We have to be able to talk about it and meet each other where we are, HERE."

TRACKLIST
01. The Beginning (Interlude) 01:04
02. The Gospel 03:01
03. Pawn It All 03:10
04. Elaine Brown (Interlude) 00:50
05. Kill Your Mama 02:40
06. She Don't Really Care_1 Luv 06:07
07. Elevate (Interlude) 00:48
08. Illusion Of Bliss 05:23
09. Blended Family (What You Do For Love) 03:31
10. Work On It 03:34
11. Cocoa Butter (Cross & Pic Interlude) 00:59
12. Girl Can't Be Herself 02:39
13. You Glow (Interlude) 00:26
14. More Than We Know 04:35
15. Where Do We Begin Now 02:47
16. Holy War 04:22
17. Hallelujah 03:09
18. In Common 03:29

foobar2000 1.3.7 / Замер динамического диапазона (DR) 1.1.1
Дата отчёта: 2016-12-05 22:10:21

––––––––––––––––––––––––––––––––––––––––
Анализ: Alicia Keys / HERE
––––––––––––––––––––––––––––––––––––––––

DR Пики RMS Продолжительность трека
––––––––––––––––––––––––––––––––––––––––
DR14 -2.20 дБ -20.71 дБ 1:04 1-The Beginning (Interlude)
DR5 0.00 дБ -7.36 дБ 3:02 2-The Gospel
DR5 0.00 дБ -6.82 дБ 3:10 3-Pawn It All
DR10 -2.56 дБ -14.99 дБ 0:50 4-Elaine Brown (Interlude)
DR8 0.00 дБ -10.17 дБ 2:41 5-Kill Your Mama
DR6 0.00 дБ -8.23 дБ 6:07 6-She Don't Really Care_1 Luv
DR14 0.00 дБ -19.48 дБ 0:49 7-Elevate (Interlude)
DR8 0.00 дБ -10.21 дБ 5:24 8-Illusion Of Bliss
DR5 -1.10 дБ -8.77 дБ 3:32 9-Blended Family (What You Do For Love)
DR7 -0.01 дБ -8.66 дБ 3:34 10-Work On It
DR10 -0.18 дБ -12.57 дБ 1:00 11-Cocoa Butter (Cross & Pic Interlude)
DR6 0.00 дБ -7.08 дБ 2:40 12-Girl Can't Be Herself
DR12 0.00 дБ -18.09 дБ 0:26 13-You Glow (Interlude)
DR6 0.00 дБ -7.75 дБ 4:36 14-More Than We Know
DR6 0.00 дБ -7.30 дБ 2:48 15-Where Do We Begin Now
DR6 0.00 дБ -9.53 дБ 4:22 16-Holy War
DR7 0.00 дБ -8.96 дБ 3:10 17-Hallelujah
DR6 0.00 дБ -7.97 дБ 3:29 18-In Common
––––––––––––––––––––––––––––––––––––––––

Количество треков: 18
Реальные значения DR: DR8

Частота: 44100 Гц
Каналов: 2
Разрядность: 24
Битрейт: 1658 кбит/с
Кодек: FLAC
================================================================================


Thanks to the Original customer.