Anne-Sophie Mutter & Herbert von Karajan - Beethoven: Violin Concerto (1980/2015)

Posted By: SERTiL
Anne-Sophie Mutter & Herbert von Karajan - Beethoven: Violin Concerto (1980/2015)

Anne-Sophie Mutter & Herbert von Karajan - Beethoven: Violin Concerto
Classical | FLAC (tracks) 24-bit/96 kHz | 48:23 min | 879 MB | Digital booklet
Label: Deutsche Grammophon | Tracks: 03 | Rls.date: 1980/2015

A legend in his lifetime for his interpretations of Beethoven, Herbert von Karajan recorded a large swathe of the composer's oeuvre. Here, Karajan conducts the Berlin Philharmonic Orchestra, with violin soloist Anne-Sophie Mutter.

TRACKLIST
01.Violin Concerto In D, Op.61:1. Allegro ma non troppo (26:39)
02.Violin Concerto In D, Op.61:2. Larghetto - (11:25)
03.Violin Concerto In D, Op.61:3. Rondo. Allegro (10:19)

foobar2000 1.3.7 / Замер динамического диапазона (DR) 1.1.1
Дата отчёта: 2016-11-12 16:23:41

––––––––––––––––––––––––––––––––––––––––
Анализ: Anne-Sophie Mutter, Associated Performer, Main Artist, Violin - Berliner Philharmoniker, Main Artist, Orchestra - Herbert von Karajan, Conductor, Main Artist - Ludwig van Beethoven, Composer - Breitkopf & Härtel, Wiesbaden - Carl Fischer, Inc. - Schott Musikverlage International Mainz / Berliner Philharmoniker : Beethoven: Violin Concerto (1-2)
Anne-Sophie Mutter, Associated Performer, Main Artist, Violin - Berliner Philharmoniker, Main Artist, Orchestra - Herbert von Karajan, Conductor, Main Artist - Ludwig van Beethoven, Composer / Berliner Philharmoniker : Beethoven: Violin Concerto (3)
––––––––––––––––––––––––––––––––––––––––

DR Пики RMS Продолжительность трека
––––––––––––––––––––––––––––––––––––––––
DR13 -0.63 дБ -20.33 дБ 26:39 1-Violin Concerto In D, Op.61:1. Allegro ma non troppo
DR12 -0.51 дБ -18.43 дБ 10:20 3-Violin Concerto In D, Op.61:3. Rondo. Allegro
DR16 -3.00 дБ -26.75 дБ 11:25 2-Violin Concerto In D, Op.61:2. Larghetto -
––––––––––––––––––––––––––––––––––––––––

Количество треков: 3
Реальные значения DR: DR14

Частота: 96000 Гц
Каналов: 2
Разрядность: 24
Битрейт: 2453 кбит/с
Кодек: FLAC
================================================================================


Thanks to the Original customer.