Anthony Joseph - Time (2014) [Official Digital Download]

Posted By: Pisulik
Anthony Joseph - Time (2014) [Official Digital Download]

Anthony Joseph - Time (2014)
FLAC (tracks) 24-bit/48 kHz | Time - 54:43 minutes | 649 MB
Studio Master, Official Digital Download | Artwork: Digital Booklet

Few contemporary poets teach creative writing at the University of London while, at the same time, bowling over large audiences at festivals around the world. Anthony Joseph has also published four volumes of poetry and a novel, and is currently working towards a doctorate. As if all this weren t enough, he is releasing his fifth album, the result of a true meeting of artistic minds, with the New York based bassist and singer Meshell Ndegeocello. Time should go a long way towards engraving Anthony Joseph s name in the history books of great black music.

Tracklist:

01. Time: Archeology
02. Hustle to live
03. Shine
04. Tamarind
05. Michael X (Narcissus)
06. Kezi
07. Heir (For women who wish)
08. Alice of the river
09. Girl with a grenade
10. Joy
11. Botanique

foobar2000 1.3.7 / Dynamic Range Meter 1.1.1
log date: 2018-01-10 02:38:51

––––––––––––––––––––––––––––––––––––––––
Analyzed: Anthony Joseph / Time
––––––––––––––––––––––––––––––––––––––––

DR Peak RMS Duration Track
––––––––––––––––––––––––––––––––––––––––
DR8 0.00 dB -10.21 dB 4:24 01-Time: Archeology
DR8 -0.16 dB -10.52 dB 5:55 02-Hustle to live
DR9 0.00 dB -10.43 dB 5:19 03-Shine
DR8 0.00 dB -9.40 dB 3:16 04-Tamarind
DR9 0.00 dB -10.07 dB 7:43 05-Michael X (Narcissus)
DR9 0.00 dB -10.15 dB 5:23 06-Kezi
DR7 -0.23 dB -9.31 dB 5:06 07-Heir (For women who wish)
DR8 -0.18 dB -10.33 dB 5:14 08-Alice of the river
DR11 -0.17 dB -13.08 dB 3:13 09-Girl with a grenade
DR6 -0.19 dB -8.66 dB 4:52 10-Joy
DR10 -1.39 dB -14.89 dB 4:18 11-Botanique
––––––––––––––––––––––––––––––––––––––––

Number of tracks: 11
Official DR value: DR8

Samplerate: 48000 Hz
Channels: 2
Bits per sample: 24
Bitrate: 1437 kbps
Codec: FLAC
================================================================================


All thanks go to the original releaser