Aretha Franklin - Unforgettable: A Tribute To Dinah Washington (1964/2011) [TR24][OF]

Posted By: SERTiL
Aretha Franklin - Unforgettable: A Tribute To Dinah Washington (1964/2011) [TR24][OF]

Aretha Franklin - Unforgettable: A Tribute To Dinah Washington
Vocal Jazz, Soul | FLAC (tracks) 24-bit/96 kHz | 40:02 min | 792 MB | Front Cover
Label: Columbia Records | Tracks: 11 | Rls.date: 1964/2011

Unforgettable: A Tribute to Dinah Washington is the sixth studio album by American singer Aretha Franklin. Released on February 18, 1964, by Columbia Records, The album is a tribute dedicated to the recently deceased singer Dinah Washington. The sessions were recorded in New York. A few tunes were cut with strings in order to bring out the essential ballad character of the songs (with the help of Bob Mersey's arranging); most of the tracks, though, were made with the assistance of a small and sympathetic accompanying group for which Mersey supplied minimal written guidance.

Since her youth Franklin had admired Dinah Washington, and it's a safe bet that the level of emotional commitment Washington brought to her work was a major influence on the blossoming style of Aretha, not to mention Washington's effortless sense of swing. Shortly before she died, Washington took appreciate notice of her acolyte as well. So Aretha's tribute to Washington is as logical as it is satisfying. Recorded when Aretha was just 21, UNFORGETTABLE is somewhat of a departure from her more R&B-oriented early work. However, the string arrangements of Johnny Mersey adn the jazzy bass work of George Duvivier mesh perfectly with Franklin's high-flying vocal fireworks. From the slow, subtle caress of "What a Difference a Day Made" to the organ-led blues of "Nobody Knows the Way I Feel This Morning," the young Aretha is in total command of the material here, simultaneously paying homage to and progressing from the influence of Washington.

TRACKLIST
01. Unforgettable 03:41
02. Cold, Cold Heart 04:36
03. What a Diff'rence a Day Made 03:31
04. Drinking Again 03:28
05. Nobody Knows the Way I Feel This Morning 05:11
06. Evil Gal Blues 02:41
07. Don't Say You're Sorry Again 02:45
08. This Bitter Earth 04:35
09. If I Should Lose You 03:36
10. Soulville 02:21
11. Lee Cross (mono) [Bonus track] 03:05

BAND
Aretha Franklin, vocals, piano
Ernie Hayes, piano, organ
Paul Griffin, organ
Teddy Charles, vibes
George Duvivier, bass
Gary Chester, drums
Ernie Royal, trumpet
Buddy Lucas, tenor sax, harmonica
Bob Asher, trombone
Strings arranged and conducted by Robert Mersey

foobar2000 1.3.7 / Замер динамического диапазона (DR) 1.1.1
Дата отчёта: 2016-12-30 18:37:16

––––––––––––––––––––––––––––––––––––––––
Анализ: Aretha Franklin / Unforgettable: A Tribute To Dinah Washington
––––––––––––––––––––––––––––––––––––––––

DR Пики RMS Продолжительность трека
––––––––––––––––––––––––––––––––––––––––
DR10 -0.64 дБ -14.79 дБ 3:45 01-Unforgettable
DR12 -0.23 дБ -15.15 дБ 4:39 02-Cold, Cold Heart
DR11 -0.01 дБ -14.94 дБ 3:35 03-What a Diff'rence a Day Made
DR11 -0.39 дБ -16.35 дБ 3:32 04-Drinking Again
DR11 -0.15 дБ -13.38 дБ 5:15 05-Nobody Knows the Way I Feel This Morning
DR11 -0.01 дБ -12.61 дБ 2:45 06-Evil Gal Blues
DR12 -0.20 дБ -15.63 дБ 2:50 07-Don't Say You're Sorry Again
DR11 -0.22 дБ -15.15 дБ 4:38 08-This Bitter Earth
DR10 -1.65 дБ -15.76 дБ 3:40 09-If I Should Lose You
DR11 -0.25 дБ -12.64 дБ 2:24 10-Soulville
DR10 -4.00 дБ -15.05 дБ 3:04 11-Lee Cross (Mono)
––––––––––––––––––––––––––––––––––––––––

Количество треков: 11
Реальные значения DR: DR11

Частота: 96000 Гц
Каналов: 2
Разрядность: 24
Битрейт: 1404 кбит/с
Кодек: FLAC
================================================================================


Thanks to the Original customer.
My Blog mp3, flac & HDtracks