Ariel Quartet - Brahms: String Quartet No. 2 - Bartók: String Quartet No. 1 (2018) [Official Digital Download 24/96]

Posted By: SERTiL
Ariel Quartet - Brahms: String Quartet No. 2 - Bartók: String Quartet No. 1 (2018) [Official Digital Download 24/96]

Ariel Quartet - Brahms: String Quartet No. 2 - Bartók: String Quartet No. 1 (2018)
FLAC (tracks) 24-bit/96 kHz | Time - 65:40 minutes | 1.16 GB
Studio Master, Official Digital Download | Artwork: Front Cover

The Ariel Quartet, distinguished by their virtuosic playing and impassioned interpretations, makes their debut recording pairing two giants of the string-quartet world, Bela Bartok and Johannes Brahms.

Both composers stand as significant pillars of the youthful Quartet's two-decade-long journey. The Ariel Quartet earned its glowing international reputation early on, having formed in Israel when its members were students in middle school. The Ariel now serves as the Faculty Quartet-in-Residence at the University of Cincinnati's College-Conservatory of Music Debut. This release is the first in a projected series pairing the quartets of Bartok and Brahms.

Critical Acclaim

"a consummate ensemble gifted with utter musicality and remarkable interpretive power" - American Record Guide

"a blazing, larger-than-life performance" - The Washington Post

Tracklist:
01. Quartet No. 2 in A Minor, Op. 51, No. 2: I . Allegro non troppo
02. Quartet No. 2 in A Minor, Op. 51, No. 2: II. Andante moderato
03. Quartet No. 2 in A Minor, Op. 51, No. 2: III. Quasi Minuetto, moderato; Allegretto vivace
04. Quartet No. 2 in A Minor, Op. 51, No. 2: IV. Finale: Allegro non assai
05. Quartet No. 1, Sz, 40, Op. 7: I. Lento
06. Quartet No. 1, Sz, 40, Op. 7: II. Allegretto Introduzione; Allegro
07. Quartet No. 1, Sz, 40, Op. 7: III. Allegro vivace

Composers:
Bartók, Béla (1881-1945)
Brahms, Johannes (1833-97)

foobar2000 1.3.7 / Dynamic Range Meter 1.1.1
log date: 2018-03-17 17:22:50

––––––––––––––––––––––––––––––––––––––––
Analyzed: Ariel Quartet / Brahms: String Quartet No. 2 - Bartók: String Quartet No. 1
––––––––––––––––––––––––––––––––––––––––

DR Peak RMS Duration Track
––––––––––––––––––––––––––––––––––––––––
DR14 -0.23 dB -20.68 dB 13:37 01-Quartet No. 2 in A Minor, Op. 51, No. 2: I . Allegro non troppo
DR14 -2.52 dB -23.55 dB 10:02 02-Quartet No. 2 in A Minor, Op. 51, No. 2: II. Andante moderato
DR16 -2.74 dB -24.09 dB 5:23 03-Quartet No. 2 in A Minor, Op. 51, No. 2: III. Quasi Minuetto, moderato; Allegretto vivace
DR14 -1.30 dB -20.60 dB 7:08 04-Quartet No. 2 in A Minor, Op. 51, No. 2: IV. Finale: Allegro non assai
DR14 -4.69 dB -24.04 dB 9:12 05-Quartet No. 1, Sz, 40, Op. 7: I. Lento
DR15 -1.79 dB -22.88 dB 8:31 06-Quartet No. 1, Sz, 40, Op. 7: II. Allegretto Introduzione; Allegro
DR15 -1.30 dB -21.21 dB 11:50 07-Quartet No. 1, Sz, 40, Op. 7: III. Allegro vivace
––––––––––––––––––––––––––––––––––––––––

Number of tracks: 7
Official DR value: DR15

Samplerate: 96000 Hz
Channels: 2
Bits per sample: 24
Bitrate: 2585 kbps
Codec: FLAC
================================================================================


Thanks to the Original customer.