Black Art Jazz Collective - Armor of Pride (2018) [Official Digital Download 24/96]

Posted By: SERTiL
Black Art Jazz Collective - Armor of Pride (2018) [Official Digital Download 24/96]

Black Art Jazz Collective - Armor of Pride (2018)
FLAC (tracks) 24-bit/96 kHz | Time - 45:19 minutes | 948 MB
Studio Master, Official Digital Download | Artwork: Digital Booklet

The Black Art Jazz Collective's mission statement celebrates African-American cultural and political icons. At the core is a modernism that conjures up the classic bands of Art Blakey and acoustic Miles Davis. But with the contemporary soul-fueled solos and locked-in rhythm the band is more likely to launch into a counterpoint riff or the spacious funk of hip-hop than the svelte lines of a classic walking bass. The Black Art Jazz Collective delivers strong original tunes and purposeful, form-hugging improvisation that keeps things looking forward rather than back. And with trumpeter Jeremy Pelt on ebullient form, and saxophonist Wayne Escoffery's muscularity contrasting with the tenderness of James Burton III's trombone, the focus never becomes diffuse or wavers.

Tracklist:
1. Miller Time 07:25
2. Armor of Pride 06:52
3. Awuraa Amma 06:47
4. The Spin Doctor 04:56
5. And There She Was, Lovely as Ever 03:16
6. Pretty 05:19
7. When Will We Learn 05:18
8. Black Art 05:26

Personnel:
Wayne Escoffery - tenor saxophone
Jeremy Pelt - trumpet
James Burton III - trombone
Xavier Davis - piano
Vicente Archer - bass
Johnathan Blake - drums

foobar2000 1.3.7 / Dynamic Range Meter 1.1.1
log date: 2018-06-13 11:33:39

––––––––––––––––––––––––––––––––––––––––
Analyzed: Black Art Jazz Collective / Armor of Pride
––––––––––––––––––––––––––––––––––––––––

DR Peak RMS Duration Track
––––––––––––––––––––––––––––––––––––––––
DR10 -0.50 dB -12.34 dB 7:25 01-Miller Time
DR9 -0.50 dB -11.15 dB 6:53 02-Armor of Pride
DR9 -0.50 dB -12.15 dB 6:47 03-Awuraa Amma
DR10 -0.50 dB -11.73 dB 4:57 04-The Spin Doctor
DR12 -0.50 dB -15.28 dB 3:17 05-And There She Was, Lovely as Ever
DR10 -0.50 dB -12.67 dB 5:20 06-Pretty
DR8 -0.50 dB -10.70 dB 5:19 07-When Will We Learn
DR10 -0.50 dB -12.37 dB 5:27 08-Black Art
––––––––––––––––––––––––––––––––––––––––

Number of tracks: 8
Official DR value: DR9

Samplerate: 96000 Hz
Channels: 2
Bits per sample: 24
Bitrate: 2906 kbps
Codec: FLAC
================================================================================


Thanks to the Original customer.