Subcategories

Bachman-Turner Overdrive ‎– Best Of B.T.O. (1976 LP/FLAC) In 24bit/96kHz & 16bit/44kHz

Posted By: Fran Solo
Bachman-Turner Overdrive ‎– Best Of B.T.O. (1976 LP/FLAC) In 24bit/96kHz & 16bit/44kHz

Bachman-Turner Overdrive ‎– Best Of B.T.O. (So Far)
Vinyl | LOG | CUE | FLAC | Tags | Full LP Cover (1:1)
24bit/96kHz: 886mb – 16bit/44kHz: 271mb
Genre: Classic-Rock | Label: Mercury / SRM-1-1101 | Release: 1976
Bachman-Turner Overdrive ‎– Best Of B.T.O. (1976 LP/FLAC) In 24bit/96kHz & 16bit/44kHz

Bachman-Turner Overdrive ‎– Best Of B.T.O. (1976 LP/FLAC) In 24bit/96kHz & 16bit/44kHz

Bachman-Turner Overdrive ‎– Best Of B.T.O. (1976 LP/FLAC) In 24bit/96kHz & 16bit/44kHz

Side A
1 Roll On Down The Highway 3:56
2 Hey You 3:33
3 Lookin’ Out For #1 5:20
4 Gimme Your Money Please 3:50
5 Let It Ride 3:33
Side B
1 Take It Like A Man 3:40
2 You Ain’t Seen Nothing Yet 3:38
3 Blue Collar 6:05
4 Takin’ Care Of Business 4:45

X Lossless Decoder version 20121027 (142.1)

XLD ReplayGain scanning logfile

TOC of the selected file
Track | Start | Length | Start sector | End sector
––––––––––––––––––––––––––––-
1 | 00:00:00 | 03:57:22 | 0 | 17796
2 | 03:57:22 | 03:31:27 | 17797 | 33648
3 | 07:28:49 | 05:17:48 | 33649 | 57471
4 | 12:46:22 | 04:19:69 | 57472 | 76965
5 | 17:06:16 | 03:32:23 | 76966 | 92888
6 | 20:38:39 | 03:38:72 | 92889 | 109310
7 | 24:17:36 | 03:37:67 | 109311 | 125652
8 | 27:55:28 | 06:07:20 | 125653 | 153197
9 | 34:02:48 | 04:48:65 | 153198 | 174862

All Tracks
Album gain : -0.56 dB
Peak : 0.950989
CRC32 hash : 8D5FB5D3
CRC32 hash (skip zero) : D67A0825

Track 01
Track gain : -1.31 dB
Peak : 0.835022
CRC32 hash : 4D5AF6DB
CRC32 hash (skip zero) : B8F130B3

Track 02
Track gain : -0.72 dB
Peak : 0.890167
CRC32 hash : 39650D2A
CRC32 hash (skip zero) : DA75CBCE

Track 03
Track gain : 5.42 dB
Peak : 0.675781
CRC32 hash : 2C1F40F2
CRC32 hash (skip zero) : 5062D9D1

Track 04
Track gain : -0.50 dB
Peak : 0.727936
CRC32 hash : D6521890
CRC32 hash (skip zero) : 5045B62F

Track 05
Track gain : -0.98 dB
Peak : 0.788971
CRC32 hash : 456BACE4
CRC32 hash (skip zero) : 846ED141

Track 06
Track gain : -1.29 dB
Peak : 0.950989
CRC32 hash : 7978B68C
CRC32 hash (skip zero) : 96E45A43

Track 07
Track gain : -0.80 dB
Peak : 0.936188
CRC32 hash : F227B5A3
CRC32 hash (skip zero) : E545E880

Track 08
Track gain : 3.05 dB
Peak : 0.610016
CRC32 hash : F54C35A5
CRC32 hash (skip zero) : D580CE7E

Track 09
Track gain : -1.16 dB
Peak : 0.887756
CRC32 hash : 1FD1D6C6
CRC32 hash (skip zero) : D8D5F760

End of status report

–––––––––––––––––––––––––––––––––––––––––––––––
Analyzed folder: Bachman-Turner Overdrive ‎– Best Of B.T.O. (LP)
–––––––––––––––––––––––––––––––––––––––––––––––
DR Peak RMS Filename
–––––––––––––––––––––––––––––––––––––––––––––––

DR15 -1.58 dB -17.56 dB 01 Bachman-Turner Overdrive - LADO 1- Roll On Down The Highway.wav
DR14 -1.49 dB -17.86 dB 02 Bachman-Turner Overdrive - Hey You.wav
DR17 -3.81 dB -22.68 dB 03 Bachman-Turner Overdrive - Lookin' Out For #1.wav
DR13 -2.91 dB -17.00 dB 04 Bachman-Turner Overdrive - Gimme Your Money Please.wav
DR14 -2.32 dB -17.48 dB 05 Bachman-Turner Overdrive - Let It Ride.wav
DR15 -0.48 dB -17.04 dB 06 Bachman-Turner Overdrive - LADO 2- Take It Like A Man.wav
DR15 -0.76 dB -18.01 dB 07 Bachman-Turner Overdrive - You Ain't Seen Nothing Yet.wav
DR15 -4.32 dB -21.52 dB 08 Bachman-Turner Overdrive - Blue Collar.wav
DR14 -1.77 dB -17.98 dB 09 Bachman-Turner Overdrive - Takin' Care Of Business.wav
–––––––––––––––––––––––––––––––––––––––––––––––

Number of files: 9
Official DR value: DR15

==============================================================================================

Having never made a completely satisfactory album, in part because many of their songs sound somewhat similar, this short but sweet 9-track “best-of” culls the most essential songs from the band’s first five studio albums and neatly sums up a damn good singles band. Surprisingly, this collection’s mellower songs (“Blue Collar” and “Lookin’ Out For #1”) are quite good tracks whose sly melodicism demonstrates the underrated guitar prowess of Randy Bachman, formerly of The Guess Who. But that understated style isn’t what these beer bellied longhairs are best remembered for. Rather, the band are better known for their good hard charging, foot stompin’ guitar grooves and bassist Turner’s often-gruff yet hooky vocals (Bachman sometimes sings lead as well). These attributes are best exemplified by “Rollin’Down The Highway,” a butt kicking party tune with big riffs, a great beat, and shout it out loud vocals, while the massive #1 hit “You Ain’t Seen Nothing Yet” (with its galloping grooves, bright hooky guitars, and Bachman’s “b-b-b-baby” vocals), “Takin’ Care Of Business” (another great groover that’s admittedly overplayed but undeniably fun), and the comparatively underrated “Let It Ride” (for my money the crown jewel in the BTO catalogue, I love the acoustic guitars, its hard rocking stomp, and especially its airy harmonies) are also chest thumping classics that still sound great, especially when blasting out of car stereo speakers. Other songs such as “Hey You,” “Take It Like A Man,” and “Gimme Your Money Please” are also solid but when grouped together they can’t help but sound like inferior retreads, as these Canadian classic rockers weren’t exactly the most versatile band around. Still, by and large Best Of BTO (ignore the (So Far), this is it, folks) provides some good time blue collar boogie thunder.

Equipment
Vinyl rip, mastered and audio correction: Fran Solo
Direct Drive Turntable: Marantz 6170
Cartridge: SHURE M97xE (audiophile)
Capture Equipment: MacPro 2x2 GHz Dual-Core Intel Xeon, integrated Audio
Soundcard: Intel High Definition Sound
Preamp: Bellari VP130 Mm Tube Phono Preamplifier
Edition: Adobe Audition CS 5.5 & Amadeus PRO - xACT & XLD (lossless)
Redbook Conversion: Izotope RX Advanced
Silences deletion?: Yes
Normalization?: No
Clickrepair?: Of course
Password?: WITHOUT PASSWORD
Scans Full & Corrected LP Cover, 1:1
(All included in 300dpi: front/back - gatefold outside/inside - booklet - insert - envelope - labels, etc.): Fran Solo


Vinyl LOG/ CUE/ FLAC/ High Definition Cover - 886mb RAR & 271mb ZIP:
RapidShare 2496
Part 1
Part 2
Part 3

MirrorCreator (RS-HF-UpL) 2496
Part 1
Part 2
Part 3

1644