Bartlomiej Niziol - Stojowski & Wieniawski: The Romantic Violin Concerto - 20 (2016) [TR24][OF]

Posted By: SERTiL
Bartlomiej Niziol - Stojowski & Wieniawski: The Romantic Violin Concerto - 20 (2016) [TR24][OF]

Bartlomiej Niziol - Stojowski & Wieniawski: The Romantic Violin Concerto - 20
Classical | FLAC (tracks) 24-bit/96 kHz | 55:49 min | 988 MB | Digital booklet
Label: Hyperion | Tracks: 05 | Rls.date: 2016

The music of Zygmunt Stojowski has yet to benefit from the renaissance enjoyed by other Polish composers of the late nineteenth and early twentieth centuries. His violin concerto—enthusiastically received at its premiere—is here revivified alongside Wieniawski’s dazzling Fantaisie in volume 20 of our Romantic Violin Concerto series.

TRACKLIST
01. Stojowski - Violin Concerto in G minor, Op 22 - 1 Allegro deciso (13:19)
02. Stojowski - Violin Concerto in G minor, Op 22 - 2 Andante non troppo (07:38)
03. Stojowski - Violin Concerto in G minor, Op 22 - 3 Allegro giocoso (09:26)
04. Stojowski - Romanze in E flat major, Op 20 (06:40)
05. Wieniawski - Fantaisie brillante sur des motifs de lopéra Faust de Gounod, Op 20 (18:46)

foobar2000 1.3.7 / Замер динамического диапазона (DR) 1.1.1
Дата отчёта: 2017-02-06 13:16:08

––––––––––––––––––––––––––––––––––––––––
Анализ: Bartłomiej Nizioł; Łukasz Borowicz: BBC Scottish Symphony Orchestra / The Romantic Violin Concerto - 20
––––––––––––––––––––––––––––––––––––––––

DR Пики RMS Продолжительность трека
––––––––––––––––––––––––––––––––––––––––
DR16 -0.17 дБ -23.47 дБ 13:20 01-Stojowski: Violin Concerto in G minor, Op 22 - 1: Allegro deciso
DR17 -0.23 дБ -24.78 дБ 7:39 02-Stojowski: Violin Concerto in G minor, Op 22 - 2: Andante non troppo
DR16 -0.04 дБ -22.74 дБ 9:26 03-Stojowski: Violin Concerto in G minor, Op 22 - 3: Allegro giocoso
DR14 -2.08 дБ -23.58 дБ 6:40 04-Stojowski: Romanze in E flat major, Op 20
DR18 -0.02 дБ -24.71 дБ 18:46 05-Wieniawski: Fantaisie brillante sur des motifs de l'opéra Faust de Gounod, Op 20
––––––––––––––––––––––––––––––––––––––––

Количество треков: 5
Реальные значения DR: DR16

Частота: 96000 Гц
Каналов: 2
Разрядность: 24
Битрейт: 2423 кбит/с
Кодек: FLAC
================================================================================


Thanks to the Original customer.