Mark Padmore & Kristian Bezuidenhout - Beethoven: An die ferne Geliebte (2015) [Official Digital Download 24/88]

Posted By: SERTiL
Mark Padmore & Kristian Bezuidenhout - Beethoven: An die ferne Geliebte (2015) [Official Digital Download 24/88]

Mark Padmore & Kristian Bezuidenhout - Beethoven: An die ferne Geliebte (2015)
FLAC (tracks) 24-bit/88.2 kHz | Time - 70:15 minutes | 1.24 GB
Studio Master, Official Digital Download | Artwork: Digital Booklet

Following their acclaimed Schumann recording, tenor Mark Padmore and fortepiano phenomenon Kristian Bezuidenhout join forces again for this varied and appealing lieder recital of songs by Haydn, 'An die ferne Geliebte' Op.98 by Beethoven, and the Masonic Cantata K.619 by Mozart.

Goethe first featured in Beethoven’s output in the early 1790s with the song ‘Marmotte’ and the composer may well have made sketches for Aus Goethes Faust following his arrival in Vienna (just a few years after the publication of the playwright’s original dramatic ‘fragment’). Beethoven’s first established Goethe setting, however, was Mailied, the melody of which he also employed in one of two arias for Ignaz Umlauf ’s Singspiel Die schöne Schusterin. Neue Liebe, neues Leben came into being in 1798–9, though the more famous version dates from 1809, when Beethoven was writing his incidental music to Goethe’s Egmont.

Composer and poet were in correspondence during 1811 and they finally met in 1812; the two, however, were never to be firm allies. Goethe thought that, although ‘his talent astonished me’, Beethoven ‘is unfortunately an utterly uncontrolled personality’. In turn, the composer was rather dismissive of Goethe’s craving of ‘Court air’, though his underlying admiration persisted, taken up by the young Schubert, whose extraordinary flowering of Lieder began on 19 October 1814 with ‘Gretchen am Spinnrade’. From the same period date Beethoven’s most impressive contributions to early Romantic song. He returned to Christoph August Tiedge’s An die Hoffnung around 1813, having originally set the poem in 1804–5. Notwithstanding that song’s soulful appeal, it was a work of 1816 that offered the true benchmark to the ensuing generation: An die ferne Geliebte.

“Mark Padmore’s sweetness of tone is capable of growth and intensification, and he is sensible to the subtleties of modulation. Kristian Bezuidenhout feels and thinks with the singer, makes his points without exaggeration and misses nothing.” (John Steane, Gramophone)

“Mark Padmore here surpasses even himself. Bezuidenhout’s accompanying is wonderfully responsive and atmospheric too.” (Warwick Thompson, Classic FM Magazine)

Tracklist:
01. She Never Told Her Love, Hob.Xxvia:34
02. Hark! What I Tell To Thee (The Spirit Song), Hob.Xxvia:41
03. Antwort Auf Die Frage Eines Mädchens, Hob.Xxvia:46
04. Das Veilchen, K.476
05. Abendempfindung, K.523
06. Kantate: Die ihr des unermesslichen Weltalls, K.619
07. Mailied No.4, Op.52
08. Neue Liebe, neues Leben No. 2, Op. 75
09. Aus Goethes Faust No.3, Op.75
10. Adelaide, Op. 46
11. Selbstgespräch WoO 114
12. Resignation, WoO 149
13. An die Hoffnung, Op. 94
14. An die ferne Geliebte, Op. 98
15. Abendlied unter'm gestirnten Himmel, WoO 150

Composers:
Beethoven, Ludwig van (1770-1827)
Haydn, Franz Joseph (1732-1809)
Mozart, Wolfgang Amadeus (1756-91)

Personnel:
Mark Padmore, tenor
Kristian Bezuidenhout, fortepiano, Rosenberger, c. 1820. Tuning: A = 430, unequal temperament

foobar2000 1.3.7 / Dynamic Range Meter 1.1.1
log date: 2018-02-11 21:24:34

––––––––––––––––––––––––––––––––––––––––
Analyzed: Mark Padmore & Kristian Bezuidenhout / Beethoven: An die ferne Geliebte (Bonus Track Version)
––––––––––––––––––––––––––––––––––––––––

DR Peak RMS Duration Track
––––––––––––––––––––––––––––––––––––––––
DR14 -6.33 dB -29.74 dB 3:22 01-She Never Told Her Love, Hob.Xxvia:34
DR15 -5.46 dB -27.16 dB 5:07 02-Hark! What I Tell To Thee (The Spirit Song), Hob.Xxvia:41
DR15 -2.29 dB -25.96 dB 3:47 03-Antwort Auf Die Frage Eines Mädchens, Hob.Xxvia:46
DR16 -3.90 dB -26.00 dB 2:30 04-Das Veilchen, K.476
DR15 -4.43 dB -26.67 dB 4:43 05-Abendempfindung, K.523
DR15 -0.51 dB -20.47 dB 6:41 06-Kantate: Die ihr des unermesslichen Weltalls, K.619
DR18 -2.04 dB -24.57 dB 2:10 07-Mailied No.4, Op.52
DR15 -0.51 dB -20.80 dB 2:55 08-Neue Liebe, neues Leben No. 2, Op. 75
DR16 -0.83 dB -21.96 dB 2:26 09-Aus Goethes Faust No.3, Op.75
DR16 -0.52 dB -21.67 dB 5:42 10-Adelaide, Op. 46
DR15 -0.21 dB -20.39 dB 3:19 11-Selbstgespräch WoO 114
DR17 -2.63 dB -27.09 dB 3:11 12-Resignation, WoO 149
DR15 -0.42 dB -21.04 dB 5:48 13-An die Hoffnung, Op. 94
DR18 -0.25 dB -23.80 dB 13:20 14-An die ferne Geliebte, Op. 98
DR16 -0.78 dB -23.77 dB 5:23 15-Abendlied unter'm gestirnten Himmel, WoO 150
––––––––––––––––––––––––––––––––––––––––

Number of tracks: 15
Official DR value: DR16

Samplerate: 88200 Hz
Channels: 2
Bits per sample: 24
Bitrate: 2480 kbps
Codec: FLAC
================================================================================


Thanks to the Original customer.