Les Vents Francais - Beethoven: Chamber Music for Winds (2017) [Official Digital Download]

Posted By: SERTiL
Les Vents Francais - Beethoven: Chamber Music for Winds (2017) [Official Digital Download]

Les Vents Francais - Beethoven: Chamber Music for Winds (2017)
FLAC (tracks) 24-bit/48 & 44.1 kHz | Time - 79:31 minutes | 776 MB
Studio Master, Official Digital Download | Artwork: Digital booklet

This extra helping of Beethoven’s music for winds comes on the heels of Les Vents Français’s recent triple-CD release Winds & Piano, praised by The Telegraph for “stylistically sure and interpretatively ear-catching” performances, including one of Beethoven’s Op.16 Quintet, which earned the group added plaudits for “astutely balanced and finely observed” playing. This recording offers much more of a good thing, with Beethoven grouping the winds in a variety of smaller combinations.

TRACKLIST

Ludwig van Beethoven (1770-1827)

01. Trio for Oboe, Clarinet and Bassoon C Major, Op. 87: I. Allegro
02. Trio for Oboe, Clarinet and Bassoon C Major, Op. 87: II. Adagio
03. Trio for Oboe, Clarinet and Bassoon C Major, Op. 87: III. Menuetto. Allegro molto
04. Trio for Oboe, Clarinet and Bassoon C Major, Op. 87: IV. Finale. Presto
05. Trio for Piano, Flute and Bassoon G major WoO 37: I. Allegro
06. Trio for Piano, Flute and Bassoon G major WoO 37: II. Adagio
07. Trio for Piano, Flute and Bassoon G major WoO 37: III. Thema andante con Variazioni
08. Variations in C Major on Mozart's "La ci darem la mano", WoO 28: Thema
09. Variations in C Major on Mozart's "La ci darem la mano", WoO 28: Variation 1
10. Variations in C Major on Mozart's "La ci darem la mano", WoO 28: Variation 2
11. Variations in C Major on Mozart's "La ci darem la mano", WoO 28: Variation 3
12. Beethoven: Variations in C Major on Mozart's "La ci darem la mano", WoO 28: Variation 4
13. Variations in C Major on Mozart's "La ci darem la mano", WoO 28: Variation 5
14. Variations in C Major on Mozart's "La ci darem la mano", WoO 28: Variation 6
15. Variations in C Major on Mozart's "La ci darem la mano", WoO 28: Variation 7
16. Variations in C Major on Mozart's "La ci darem la mano", WoO 28: Variation 8-Coda
17. Sonata for Piano and Horn in F Major, Op. 17: I. Allegro moderato
18. Sonata for Piano and Horn in F Major, Op. 17: II. Poco Adagio, quasi Andante
19. Sonata for Piano and Horn in F Major, Op. 17: III. Rondo. Allegro moderato
20. Duo for Clarinet and Bassoon B flat major WoO 27 No. 3: I. Allegro sostenuto!
21. Duo for Clarinet and Bassoon B flat major WoO 27 No. 3: II. Aria con variazioni. Andantino con moto

Les Vents Francais:
Emmanuel Pahud, flute
Francois Leleux, oboe
Paul Meyer, clarinet
Gilbert Audin, bassoon
Radovan Vlatković, horn
Éric Le Sage, piano

foobar2000 1.3.7 / Dynamic Range Meter 1.1.1
log date: 2017-09-14 13:52:28

––––––––––––––––––––––––––––––––––––––––
Analyzed: Les Vents Francais / Beethoven: Chamber Music for Winds
––––––––––––––––––––––––––––––––––––––––

DR Peak RMS Duration Track
––––––––––––––––––––––––––––––––––––––––
DR12 -2.63 dB -19.94 dB 4:17 02-Trio for Oboe, Clarinet and Bassoon C Major, Op. 87: II. Adagio
DR10 -3.37 dB -20.39 dB 0:38 10-Variations in C Major on Mozart's "La ci darem la mano", WoO 28: Variation 2
––––––––––––––––––––––––––––––––––––––––

Number of tracks: 2
Official DR value: DR11

Samplerate: 44100 Hz
Channels: 2
Bits per sample: 24
Bitrate: 1260 kbps
Codec: FLAC
================================================================================

––––––––––––––––––––––––––––––––––––––––
Analyzed: Les Vents Francais / Beethoven: Chamber Music for Winds
––––––––––––––––––––––––––––––––––––––––

DR Peak RMS Duration Track
––––––––––––––––––––––––––––––––––––––––
DR14 -0.10 dB -19.03 dB 9:56 01-Trio for Oboe, Clarinet and Bassoon C Major, Op. 87: I. Allegro
DR13 -2.42 dB -19.23 dB 2:29 03-Trio for Oboe, Clarinet and Bassoon C Major, Op. 87: III. Menuetto. Allegro molto
DR14 -1.25 dB -19.10 dB 3:59 04-Trio for Oboe, Clarinet and Bassoon C Major, Op. 87: IV. Finale. Presto
DR13 -1.02 dB -18.01 dB 11:34 05-Trio for Piano, Flute and Bassoon G major WoO 37: I. Allegro
DR12 -3.43 dB -20.14 dB 4:37 06-Trio for Piano, Flute and Bassoon G major WoO 37: II. Adagio
DR13 -0.11 dB -18.43 dB 9:21 07-Trio for Piano, Flute and Bassoon G major WoO 37: III. Thema andante con Variazioni
DR11 -2.86 dB -18.76 dB 0:50 08-Variations in C Major on Mozart's "La ci darem la mano", WoO 28: Thema
DR11 -9.22 dB -23.01 dB 0:35 09-Variations in C Major on Mozart's "La ci darem la mano", WoO 28: Variation 1
DR12 -3.45 dB -18.76 dB 0:52 11-Variations in C Major on Mozart's "La ci darem la mano", WoO 28: Variation 3
DR11 -4.41 dB -20.24 dB 0:35 12-Beethoven: Variations in C Major on Mozart's "La ci darem la mano", WoO 28: Variation 4
DR11 -4.91 dB -19.87 dB 0:42 13-Variations in C Major on Mozart's "La ci darem la mano", WoO 28: Variation 5
DR12 -2.74 dB -19.48 dB 1:02 14-Variations in C Major on Mozart's "La ci darem la mano", WoO 28: Variation 6
DR13 -2.02 dB -20.01 dB 0:42 15-Variations in C Major on Mozart's "La ci darem la mano", WoO 28: Variation 7
DR13 -0.75 dB -18.99 dB 2:27 16-Variations in C Major on Mozart's "La ci darem la mano", WoO 28: Variation 8-Coda
DR13 -0.12 dB -17.59 dB 7:55 17-Sonata for Piano and Horn in F Major, Op. 17: I. Allegro moderato
DR8 -8.07 dB -23.03 dB 1:11 18-Sonata for Piano and Horn in F Major, Op. 17: II. Poco Adagio, quasi Andante
DR12 -0.12 dB -17.63 dB 4:38 19-Sonata for Piano and Horn in F Major, Op. 17: III. Rondo. Allegro moderato
DR12 -0.73 dB -17.02 dB 6:01 20-Duo for Clarinet and Bassoon B flat major WoO 27 No. 3: I. Allegro sostenuto!
DR13 -1.36 dB -18.52 dB 5:23 21-Duo for Clarinet and Bassoon B flat major WoO 27 No. 3: II. Aria con variazioni. Andantino con moto
––––––––––––––––––––––––––––––––––––––––

Number of tracks: 19
Official DR value: DR12

Samplerate: 48000 Hz
Channels: 2
Bits per sample: 24
Bitrate: 1434 kbps
Codec: FLAC
================================================================================


Thanks to the Original customer.