Tedi Papavrami & François-Frédéric Guy - Beethoven: Complete Sonatas for Piano & Violin (2017) [Official Digital Download]

Posted By: SERTiL
Tedi Papavrami & François-Frédéric Guy - Beethoven: Complete Sonatas for Piano & Violin (2017) [Official Digital Download]

Tedi Papavrami & François-Frédéric Guy - Beethoven: Complete Sonatas for Piano & Violin (2017)
FLAC (tracks) 24-bit/48 kHz | Time - 220:26 minutes | 2.06 GB
Studio Master, Official Digital Download | Artwork: Digital booklet

Two fabulous artists, accustomed to wining international awards (Gramophon, Editor’s Choice, Diapason d’Or) release the long-awaited complete recording of Beethoven’s Piano and Violin Sonatas: the pianist François-Frédéric Guy and the violinist Tedi Papavrami dive with brio into the composer’s sound maturity demonstration and exploration of the technical limits of the instruments.

The late sonatas allow François-Frédéric Guy to spread out the powerful sensibility of his interpretation. For his part, Tedi Papavrami thrives in an ardor as tempestuous as his playing is elegant.

But “The Spring” and “Kreutzer”, the most famous sonatas, don’t outshine the early scores which are played with the same talent by the two musicians. Their fraternal and flexible dialogue respects the balance Beethoven achieved in this unequalled monument of chamber music.

TRACKLIST

Ludwig Van Beethoven (1770-1827)

CD1
01. Violin and Piano Sonata No. 1 in D, Op. 12 No. 1: I. Allegro con brio
02. Violin and Piano Sonata No. 1 in D, Op. 12 No. 1: II. Tema con variazioni. Andante con moto
03. Violin and Piano Sonata No. 1 in D, Op. 12 No. 1: III. Rondo. Allegro
04. Violin and Piano Sonata No. 2 in A, Op. 12 No. 2: I. Allegro vivace
05. Violin and Piano Sonata No. 2 in A, Op. 12 No. 2: II. Andante, più tosto allegretto
06. Violin and Piano Sonata No. 2 in A, Op. 12 No. 2: III. Allegro piacevole
07. Violin and Piano Sonata No. 3 in E-Flat, Op. 12 No. 3: I. Allegro con spirito
08. Violin and Piano Sonata No. 3 in E-Flat, Op. 12 No. 3: II. Adagio con molt' espressione
09. Violin and Piano Sonata No. 3 in E-Flat, Op. 12 No. 3: III. Rondo. Allegro molto
10. Violin and Piano Sonata No. 4 in A Minor, Op. 23: I. Presto
11. Violin and Piano Sonata No. 4 in A Minor, Op. 23: II. Andante scherzoso, più allegretto
12. Violin and Piano Sonata No. 4 in A Minor, Op. 23: III. Allegro molto

CD2
01. Violin and Piano Sonata No. 5 in F, Op. 24 "Spring Sonata": I. Allegro
02. Violin and Piano Sonata No. 5 in F, Op. 24 "Spring Sonata": II. Adagio molto espressivo
03. Violin and Piano Sonata No. 5 in F, Op. 24 "Spring Sonata": III. Scherzo. Allegro molto-Trio
04. Violin and Piano Sonata No. 5 in F, Op. 24 "Spring Sonata": IV. Rondo. Allegro ma non troppo
05. Violin and Piano Sonata No. 6 in A, Op. 30 No. 1: I. Allegro
06. Violin and Piano Sonata No. 6 in A, Op. 30 No. 1: II. Adagio molto espressivo
07. Violin and Piano Sonata No. 6 in A, Op. 30 No. 1: III. Allegretto con variazioni
08. Violin and Piano Sonata No. 7 in C Minor, Op. 30 No. 2: I. Allegro con brio
09. Violin and Piano Sonata No. 7 in C Minor, Op. 30 No. 2: II. Adagio cantabile
10. Violin and Piano Sonata No. 7 in C Minor, Op. 30 No. 2: III. Scherzo. Allegro-Trio
11. Violin and Piano Sonata No. 7 in C Minor, Op. 30 No. 2: IV. Finale. Allegro

CD3
01. Violin and Piano Sonata No. 8 in G, Op. 30 No. 3: I. Allegro assai
02. Violin and Piano Sonata No. 8 in G, Op. 30 No. 3: II. Tempo di minuetto, ma molto moderato e grazioso
03. Violin and Piano Sonata No. 8 in G, Op. 30 No. 3: III. Allegro vivace
04. Violin and Piano Sonata No. 9 in A, Op. 47 "Kreutzer Sonata": I. Adagio sostenuto-Presto
05. Violin and Piano Sonata No. 9 in A, Op. 47 "Kreutzer Sonata": II. Andante con variazioni
06. Violin and Piano Sonata No. 9 in A, Op. 47 "Kreutzer Sonata": III. Finale. Presto
07. Violin and Piano Sonata No. 10 in G, Op. 96: I. Allegro moderato
08. Violin and Piano Sonata No. 10 in G, Op. 96: II. Adagio espressivo
09. Violin and Piano Sonata No. 10 in G, Op. 96: III. Scherzo. Allegro-Trio
10. Violin and Piano Sonata No. 10 in G, Op. 96: IV. Poco allegretto

PERSONNEL
Tedi Papavrami, violin
François-Frédéric Guy, piano

foobar2000 1.3.7 / Dynamic Range Meter 1.1.1
log date: 2017-10-18 12:07:27

––––––––––––––––––––––––––––––––––––––––
Analyzed: Tedi Papavrami, François-Frédéric Guy / Beethoven: Complete Sonatas for Piano & Violin
––––––––––––––––––––––––––––––––––––––––

DR Peak RMS Duration Track
––––––––––––––––––––––––––––––––––––––––
DR15 -0.33 dB -19.26 dB 8:31 01-Violin and Piano Sonata No. 1 in D, Op. 12 No. 1: I. Allegro con brio
DR16 -0.30 dB -21.38 dB 6:19 02-Violin and Piano Sonata No. 1 in D, Op. 12 No. 1: II. Tema con variazioni. Andante con moto
DR15 -0.30 dB -20.05 dB 4:26 03-Violin and Piano Sonata No. 1 in D, Op. 12 No. 1: III. Rondo. Allegro
DR16 -0.30 dB -20.36 dB 5:58 04-Violin and Piano Sonata No. 2 in A, Op. 12 No. 2: I. Allegro vivace
DR14 -5.72 dB -25.33 dB 5:11 05-Violin and Piano Sonata No. 2 in A, Op. 12 No. 2: II. Andante, più tosto allegretto
DR15 -0.30 dB -21.10 dB 4:45 06-Violin and Piano Sonata No. 2 in A, Op. 12 No. 2: III. Allegro piacevole
DR15 -0.30 dB -19.19 dB 7:53 07-Violin and Piano Sonata No. 3 in E-Flat, Op. 12 No. 3: I. Allegro con spirito
DR15 -0.30 dB -25.96 dB 6:05 08-Violin and Piano Sonata No. 3 in E-Flat, Op. 12 No. 3: II. Adagio con molt' espressione
DR14 -0.30 dB -18.04 dB 4:00 09-Violin and Piano Sonata No. 3 in E-Flat, Op. 12 No. 3: III. Rondo. Allegro molto
DR14 -0.30 dB -18.33 dB 7:38 10-Violin and Piano Sonata No. 4 in A Minor, Op. 23: I. Presto
DR14 -3.50 dB -22.98 dB 7:16 11-Violin and Piano Sonata No. 4 in A Minor, Op. 23: II. Andante scherzoso, più allegretto
DR14 -0.30 dB -19.88 dB 5:17 12-Violin and Piano Sonata No. 4 in A Minor, Op. 23: III. Allegro molto
DR16 -0.30 dB -19.99 dB 9:26 01-Violin and Piano Sonata No. 5 in F, Op. 24 "Spring Sonata": I. Allegro
DR15 -5.31 dB -26.70 dB 6:06 02-Violin and Piano Sonata No. 5 in F, Op. 24 "Spring Sonata": II. Adagio molto espressivo
DR14 -0.63 dB -19.96 dB 1:10 03-Violin and Piano Sonata No. 5 in F, Op. 24 "Spring Sonata": III. Scherzo. Allegro molto-Trio
DR15 -1.07 dB -20.40 dB 6:20 04-Violin and Piano Sonata No. 5 in F, Op. 24 "Spring Sonata": IV. Rondo. Allegro ma non troppo
DR15 -1.70 dB -21.05 dB 7:15 05-Violin and Piano Sonata No. 6 in A, Op. 30 No. 1: I. Allegro
DR14 -4.87 dB -25.36 dB 7:03 06-Violin and Piano Sonata No. 6 in A, Op. 30 No. 1: II. Adagio molto espressivo
DR16 -0.30 dB -20.75 dB 7:32 07-Violin and Piano Sonata No. 6 in A, Op. 30 No. 1: III. Allegretto con variazioni
DR13 -0.30 dB -17.31 dB 7:23 08-Violin and Piano Sonata No. 7 in C Minor, Op. 30 No. 2: I. Allegro con brio
DR17 -1.93 dB -24.66 dB 8:19 09-Violin and Piano Sonata No. 7 in C Minor, Op. 30 No. 2: II. Adagio cantabile
DR15 -0.30 dB -20.40 dB 3:21 10-Violin and Piano Sonata No. 7 in C Minor, Op. 30 No. 2: III. Scherzo. Allegro-Trio
DR14 -0.30 dB -17.75 dB 5:09 11-Violin and Piano Sonata No. 7 in C Minor, Op. 30 No. 2: IV. Finale. Allegro
DR15 -0.30 dB -20.04 dB 5:56 01-Violin and Piano Sonata No. 8 in G, Op. 30 No. 3: I. Allegro assai
DR15 -3.44 dB -24.58 dB 7:05 02-Violin and Piano Sonata No. 8 in G, Op. 30 No. 3: II. Tempo di minuetto, ma molto moderato e grazioso
DR15 -0.30 dB -19.58 dB 3:26 03-Violin and Piano Sonata No. 8 in G, Op. 30 No. 3: III. Allegro vivace
DR13 -0.30 dB -17.34 dB 12:59 04-Violin and Piano Sonata No. 9 in A, Op. 47 "Kreutzer Sonata": I. Adagio sostenuto-Presto
DR15 -2.88 dB -23.19 dB 13:36 05-Violin and Piano Sonata No. 9 in A, Op. 47 "Kreutzer Sonata": II. Andante con variazioni
DR14 -0.30 dB -17.82 dB 7:59 06-Violin and Piano Sonata No. 9 in A, Op. 47 "Kreutzer Sonata": III. Finale. Presto
DR17 -0.30 dB -21.73 dB 10:09 07-Violin and Piano Sonata No. 10 in G, Op. 96: I. Allegro moderato
DR14 -10.40 dB -29.22 dB 6:33 08-Violin and Piano Sonata No. 10 in G, Op. 96: II. Adagio espressivo
DR13 -0.30 dB -20.55 dB 1:39 09-Violin and Piano Sonata No. 10 in G, Op. 96: III. Scherzo. Allegro-Trio
DR16 -0.30 dB -21.50 dB 9:00 10-Violin and Piano Sonata No. 10 in G, Op. 96: IV. Poco allegretto
––––––––––––––––––––––––––––––––––––––––

Number of tracks: 33
Official DR value: DR15

Samplerate: 48000 Hz
Channels: 2
Bits per sample: 24
Bitrate: 1291 kbps
Codec: FLAC
================================================================================


Thanks to the Original customer.