Roberto Forés Veses & Orchestre d'Auvergne - Beethoven: Quartets, Op. 95 & 131 (Arr. for String Orchestra) (2017) [24/96]

Posted By: SERTiL
Roberto Forés Veses & Orchestre d'Auvergne - Beethoven: Quartets, Op. 95 & 131 (Arr. for String Orchestra) (2017) [24/96]

Roberto Forés Veses & Orchestre d'Auvergne - Beethoven: Quartets, Op. 95 & 131 (Arr. for String Orchestra) (2017)
FLAC (tracks) 24-bit/96 kHz | Time - 57:30 minutes | 930 MB
Studio Master, Official Digital Download | Artwork: Digital booklet

The Orchestre d'Auvergne and Aparté continue their partnership with this new recording dedicated to masterpieces of the romantic repertoire. Beethoven's Quartet No. 11, Op. 95 and No. 14, Op. 131 belong to the works designed for the private interpretation and inner listening of the happy few music-connoisseurs. Those two chamber music scores came from the mind of a digger of new sounds. The question of the quartets' reception has to be updated with actual terms and their arrangement for string orchestra by Gustav Mahler reminds subtly that the public of these works grows over time. The arrangement process shows also admiration and preserves music's eternal youth for which the Orchestre d'Auvergne and its conductor Roberto Forés Veses play the role of a courier.

TRACKLIST

Ludwig van Beethoven (1770-1827)

Quartet No. 11 in F Minor, Op. 95 « Quartetto serioso »
1 I. Allegro con brio (Arr. Gustav Mahler) 04:09
2 II. Allegretto ma non troppo (Arr. Gustav Mahler) 06:40
3 III. Allegro assai vivace ma serioso (Arr. Gustav Mahler) 04:15
4 IV. Larghetto espressivo – Allegretto agitato – Allegro (Arr. Gustav Mahler) 04:42

Quartet No. 14 in C-Sharp Minor, Op. 131
5 I. Adagio ma non troppo e molto espressivo 06:42
6 II. Allegro molto vivace 02:48
7 III. Allegro moderato 00:52
8 IV. Andante ma non troppo e molto cantabile 13:09
9 V. Presto 05:38
10 VI. Adagio quasi un poco andante 02:24
11 VII. Allegro 06:11

PERSONNEL
Orchestre d'Auvergne
Roberto Forés Veses, conductor

foobar2000 1.3.7 / Dynamic Range Meter 1.1.1
log date: 2017-06-04 21:04:41

––––––––––––––––––––––––––––––––––––––––
Analyzed: Roberto Forés Veses, Orchestre d'Auvergne / Beethoven: Quartets, Op. 95 & 131 (Arr. for String Orchestra)
––––––––––––––––––––––––––––––––––––––––

DR Peak RMS Duration Track
––––––––––––––––––––––––––––––––––––––––
DR14 -0.83 dB -20.76 dB 4:10 01-Quartet No. 11 in F Minor, Op. 95 «Quartetto serioso»: I. Allegro con brio (Arr. Gustav Mahler)
DR16 -4.12 dB -27.66 dB 6:41 02-Quartet No. 11 in F Minor, Op. 95 «Quartetto serioso»: II. Allegretto ma non troppo (Arr. Gustav Mahler)
DR15 -1.51 dB -20.57 dB 4:15 03-Quartet No. 11 in F Minor, Op. 95 «Quartetto serioso»: III. Allegro assai vivace ma serioso (Arr. Gustav Mahler)
DR15 -1.26 dB -22.96 dB 4:42 04-Quartet No. 11 in F Minor, Op. 95 «Quartetto serioso»: IV. Larghetto espressivo – Allegretto agitato – Allegro (Arr. Gustav Mahler)
DR13 -6.59 dB -27.02 dB 6:43 05-Quartet No. 14 in C-Sharp Minor, Op. 131: I. Adagio ma non troppo e molto espressivo
DR16 -2.86 dB -24.09 dB 2:48 06-Quartet No. 14 in C-Sharp Minor, Op. 131: II. Allegro molto vivace
DR16 -4.47 dB -27.73 dB 0:52 07-Quartet No. 14 in C-Sharp Minor, Op. 131: III. Allegro moderato
DR18 -3.33 dB -28.16 dB 13:09 08-Quartet No. 14 in C-Sharp Minor, Op. 131: IV. Andante ma non troppo e molto cantabile
DR17 -1.86 dB -24.83 dB 5:38 09-Quartet No. 14 in C-Sharp Minor, Op. 131: V. Presto
DR13 -11.74 dB -30.95 dB 2:25 10-Quartet No. 14 in C-Sharp Minor, Op. 131: VI. Adagio quasi un poco andante
DR15 -0.30 dB -21.33 dB 6:12 11-Quartet No. 14 in C-Sharp Minor, Op. 131: VII. Allegro
––––––––––––––––––––––––––––––––––––––––

Number of tracks: 11
Official DR value: DR15

Samplerate: 96000 Hz
Channels: 2
Bits per sample: 24
Bitrate: 2370 kbps
Codec: FLAC
================================================================================


Thanks to the Original customer.