Subcategories

Salvatore Accardo, Giorgia Tomassi - Beethoven: Sonatas Op. 47, Op. 24 (2004/2012) [Official Digital Download 24/96]

Posted By: SERTiL
Salvatore Accardo, Giorgia Tomassi - Beethoven: Sonatas Op. 47, Op. 24 (2004/2012) [Official Digital Download 24/96]

Salvatore Accardo, Giorgia Tomassi - Beethoven: Sonatas Op. 47, Op. 24 (2004/2012)
FLAC (tracks) 24-bit/96 kHz | Time - 64:12 minutes | 1.29 GB
Studio Master, Official Digital Download | Artwork: Digital booklet

Violin Sonata no. 9 in A major, commonly known as the Kreutzer Sonata is a violin sonata Ludwig van Beethoven published in 1802 as his opus 47. It is known for its demanding violin part, unusual length (a typical performance lasts slightly less than 40 minutes), and emotional scope - while the first movement is predominantly furious, the second is meditative and the third joyous and exuberant.

TRACKLIST

Ludwig van Beethoven (1770-1827)

Sonata in La Maggiore Op. 47 'A Kreutzer'
1. Adagio sostenuto - Presto 14:45
2. Andante con variazioni 16:13
3. Finale, Presto 08:48

Sonata in Fa Maggiore Op. 24 'La Primavera'
4. Allegro 10:20
5. Adagio molto espressivo 06:14
6. Scherzo, Allegro molto 01:20
7. Rondò, Allegro ma non troppo 06:34

PERSONNEL
Salvatore Accardo, violin
Giorgia Tomassi, piano

foobar2000 1.3.7 / Dynamic Range Meter 1.1.1
log date: 2017-06-27 17:33:16

––––––––––––––––––––––––––––––––––––––––
Analyzed: Salvatore Accardo, Giorgia Tomassi / Beethoven: Sonatas Op. 47, Op. 24
––––––––––––––––––––––––––––––––––––––––

DR Peak RMS Duration Track
––––––––––––––––––––––––––––––––––––––––
DR15 -0.51 dB -21.20 dB 14:45 01-Sonata in La maggiore, Op. 47 'A Kreutzer' - I. Adagio sostenuto - Presto
DR16 -7.04 dB -28.32 dB 16:13 02-Sonata in La maggiore, Op. 47 'A Kreutzer' - II. Andante con variazioni
DR14 -2.48 dB -21.24 dB 8:48 03-Sonata in La maggiore, Op. 47 'A Kreutzer' - III. Finale: Presto
DR16 -2.10 dB -23.91 dB 10:20 04-Sonata in Fa maggiore, Op. 24 'La Primavera' - I. Allegro
DR17 -7.66 dB -32.30 dB 6:14 05-Sonata in Fa maggiore, Op. 24 'La Primavera' - II. Adagio molto espressivo
DR14 -3.54 dB -23.79 dB 1:20 06-Sonata in Fa maggiore, Op. 24 'La Primavera' - III. Scherzo: Allegro molto
DR14 -4.24 dB -23.63 dB 6:34 07-Sonata in Fa maggiore, Op. 24 'La Primavera' - IV. Rondò, Allegro ma non troppo
––––––––––––––––––––––––––––––––––––––––

Number of tracks: 7
Official DR value: DR15

Samplerate: 96000 Hz
Channels: 2
Bits per sample: 24
Bitrate: 2881 kbps
Codec: FLAC
================================================================================


Thanks to the Original customer.