Martha Argerich, Seiji Ozawa & Mito Chamber Orchestra - Beethoven: Symphony No. 1 & Piano Concerto No. 1 (Live) (2018) [24/96]

Posted By: SERTiL
Martha Argerich, Seiji Ozawa & Mito Chamber Orchestra - Beethoven: Symphony No. 1 & Piano Concerto No. 1 (Live) (2018) [24/96]

Martha Argerich, Seiji Ozawa & Mito Chamber Orchestra - Beethoven: Symphony No. 1 & Piano Concerto No. 1 (Live) (2018)
FLAC (tracks) 24-bit/96 kHz | Time - 60:37 minutes | 1.01 GB
Studio Master, Official Digital Download | Artwork: Digital Booklet

Two Legends together on record for the first time; first new release from Seiji Ozawa since his Grammy win for Best Opera in 2016.

Tracklist:

Ludwig van Beethoven (1770-1827)

01. Beethoven: Symphony No.1 In C Major, Op.21-1. Adagio molto-Allegro con brio (Live)
02. Beethoven: Symphony No.1 In C Major, Op.21-2. Andante cantabile con moto (Live)
03. Beethoven: Symphony No.1 In C Major, Op.21-3. Menuetto (Allegro molto e vivace) (Live)
04. Beethoven: Symphony No.1 In C Major, Op.21-4. Finale (Adagio-Allegro molto e vivace) (Live)
05. Beethoven: Piano Concerto No.1 in C Major, Op.15-1. Allegro con brio (Live)
06. Beethoven: Piano Concerto No.1 in C Major, Op.15-2. Largo (Live)
07. Beethoven: Piano Concerto No.1 in C Major, Op.15-3. Rondo (Allegro scherzando) (Live)

Personnel:
Martha Argerich, piano
Mito Chamber Orchestra
Seiji Ozawa, conductor

foobar2000 1.3.7 / Dynamic Range Meter 1.1.1
log date: 2018-02-02 19:31:38

––––––––––––––––––––––––––––––––––––––––
Analyzed: Martha Argerich & Mito Chamber Orchestra & Seiji Ozawa / Beethoven: Symphony No. 1 & Piano Concerto No. 1 (Live) (1)
Mito Chamber Orchestra and Seiji Ozawa / Beethoven: Symphony No. 1 & Piano Concerto No. 1 (Live) (2-5)
Seiji Ozawa & Martha Argerich & Mito Chamber Orchestra / Beethoven: Symphony No. 1 & Piano Concerto No. 1 (Live) (6)
Seiji Ozawa & Mito Chamber Orchestra & Martha Argerich / Beethoven: Symphony No. 1 & Piano Concerto No. 1 (Live) (7)
––––––––––––––––––––––––––––––––––––––––

DR Peak RMS Duration Track
––––––––––––––––––––––––––––––––––––––––
DR14 0.00 dB -18.25 dB 8:58 07-Beethoven: Piano Concerto No.1 in C Major, Op.15-3. Rondo (Allegro scherzando) (Live)
DR14 0.00 dB -18.06 dB 9:48 01-Beethoven: Symphony No.1 In C Major, Op.21-1. Adagio molto-Allegro con brio (Live)
DR14 -0.80 dB -23.42 dB 7:47 02-Beethoven: Symphony No.1 In C Major, Op.21-2. Andante cantabile con moto (Live)
DR13 -0.67 dB -19.04 dB 3:36 03-Beethoven: Symphony No.1 In C Major, Op.21-3. Menuetto (Allegro molto e vivace) (Live)
DR13 0.00 dB -17.72 dB 6:01 04-Beethoven: Symphony No.1 In C Major, Op.21-4. Finale (Adagio-Allegro molto e vivace) (Live)
DR15 -2.94 dB -24.10 dB 10:33 06-Beethoven: Piano Concerto No.1 in C Major, Op.15-2. Largo (Live)
DR14 0.00 dB -18.66 dB 13:56 05-Beethoven: Piano Concerto No.1 in C Major, Op.15-1. Allegro con brio (Live)
––––––––––––––––––––––––––––––––––––––––

Number of tracks: 7
Official DR value: DR14

Samplerate: 96000 Hz
Channels: 2
Bits per sample: 24
Bitrate: 2327 kbps
Codec: FLAC
================================================================================


Thanks to the Original customer.