Berliner Philharmoniker, Herbert von Karajan - Richard Wagner: Der Ring des Nibelungen (1998/2016) [Official Digital Download]

Posted By: Pisulik
Berliner Philharmoniker, Herbert von Karajan - Richard Wagner: Der Ring des Nibelungen (1998/2016) [Official Digital Download]

Berliner Philharmoniker, Herbert von Karajan - Richard Wagner: Der Ring des Nibelungen (1998/2016)
FLAC (tracks) 24-bit/96 kHz | Time - 14:57:27 | 17 GB
Studio Master, Official Digital Download | Artwork: Digital Booklets

Wagner interpretations with Herbert von Karajan and the Berliner Philharmoniker have a quality all of their own. Critics always admired the ability of the musicians to bring out not only Wagner’s luscious sound, but also all the subtleties of the score. Moreover, Karajan was able to rally the singers to successfully convey the lyrical tenderness of Wagner’s heroes despite their vocal powers.

Herbert von Karajan was one of the most highly regarded Wagner conductors of his age, celebrated for a lyrical, fiery and contrapuntally clear approach to the music which owed more to the example of conductors such as Toscanini and Clemens Krauss than it did to the old “German” school of Wagner conducting. Karajan once remarked: “When we did the Ring people said it was ‘chamber music’, but I would deny that. It was the full Wagner orchestra, with full sonority but played with real subtlety and the full range of dynamics.”

Karajan conducted four complete Ring cycles during his career: in Aachen in 1937, at the 1951 Bayreuth Festival, in Vienna in 1959, and at his own newly founded Salzburg Easter Festival between 1967 and 1970. In 1963 stage designer Günther Schneider-Siemssen had told him: “Salzburg has a great Wagner theatre the Grosses Festspielhaus. It is too big for Mozart but for Wagner it would be wonderful.” The orchestra engaged by Karajan was the Berliner Philharmoniker, the ensemble he considered best suited to the realisation of his musical vision.

DG's 20-bit transfer reveals more tape hiss than before, while the orchestral image is better focused, with more definition at the bottom end. Some have likened Herbert von Karajan's "chamber-music approach" to Wagner's Ring cycle in terms of his scaling down or deconstructing the heroic roles. This approach has less to do with dynamics per se than it does with von Karajan's masterful balancing of voices and instruments. He achieves revelations of horizontal clarity, allowing no contrapuntal strand to emerge with an unwanted accent or a miscalibrated dynamic. The texts are unusually pinpointed and distinct, although the singers don't convey the experience and dimension of Sir Georg Solti's cast on London. There are exceptions. Jon Vickers's probing, complex Siegmund, for instance, is paired with Gundula Janowitz's radiant SIeglinde. Martti Talvela is arguably the most sympathetic, touching Fasolt on record, and Gerhard Stolz's Mime is less caricatured and more direct here than for Solti. I similarly prefer Christa Ludwig's Waltraute for von Karajan. The underrated Helge Brilioth's warmly ringing and musically solid Götterdämmerung Siegfried will be a welcome surprise. Smaller roles benefit from strong casting, notably the well-tuned Rheinmaidens and Valkyries. When all is said and done, however, it's von Karajan's show, and the glorious Berlin Philharmonic are the stars.

CD 1: Wagner: Das Rheingold

Richard Wagner (1813 - 1883)

Das Rheingold, WWV 86A

01. Vorspiel 04:36
Erste Szene
02. Weia! Waga! Woge du Welle! 01:13
03. He he! Ihr Nicker! 01:18
04. Garstig glatter glitschriger Glimmer! 07:19
05. Lugt, Schwestern! Die Weckerin lacht in den Grund 04:08
06. Nur wer der Minne Macht entsagt 01:40
07. Der Welt Erbe gewänn' ich zu eigen durch dich? 01:43
08. Haltet den Räuber! 03:22

Zweite Szene
09. Einleitung 01:20
10. Wotan! Gemahl! Erwache! 06:27
11. So schirme sie jetzt 01:44
12. Sanft schloss Schlaf dein Aug' 02:21
13. Was sagst du? Ha, sinnst du Verrat? 04:22
14. Du da, folge uns! 01:36
15. Endlich, Loge! Eiltest du so 03:33
16. Immer ist Undank Loges Lohn! 06:58
17. Ein Runenzauber zwingt das Gold zum Reif 03:11
18. Hör', Wotan, der Harrenden Wort! 01:52
19. Schwester! Brüder! Rettet! Helft! 04:36
20. Wotan, Gemahl, unsel'ger Mann! 01:56
21. Verwandlungsmusik 02:45

Dritte Szene
22. Hehe! hehe! hieher! hieher! Tückischer Zwerg! 02:44
23. Nibelheim hier 05:29
24. Nehmt euch in acht! Alberich naht! 01:35

foobar2000 1.3.7 / Dynamic Range Meter 1.1.1
log date: 2017-10-24 02:55:50

––––––––––––––––––––––––––––––––––––––––
Analyzed: Berliner Philharmoniker, Herbert von Karajan / Wagner: Das Rheingold (1-3)
Dietrich Fischer-Dieskau, Gerhard Stolze, Erwin Wohlfahrt, Berliner Philharmoniker, Herbert von Karajan / Wagner: Das Rheingold (4)
Dietrich Fischer-Dieskau, Martti Talvela, Berliner Philharmoniker, Herbert von Karajan / Wagner: Das Rheingold (5)
Dietrich Fischer-Dieskau, Martti Talvela, Karl Ridderbusch, Berliner Philharmoniker, Herbert von Karajan / Wagner: Das Rheingold (6)
Edda Moser, Helen Donath, Anna Reynolds, Berliner Philharmoniker, Herbert von Karajan / Wagner: Das Rheingold (7)
Erwin Wohlfahrt, Gerhard Stolze, Dietrich Fischer-Dieskau, Zoltan Kelemen, Berliner Philharmoniker, Herbert von Karajan / Wagner: Das Rheingold (8)
Erwin Wohlfahrt, Zoltan Kelemen, Berliner Philharmoniker, Herbert von Karajan / Wagner: Das Rheingold (9)
Helen Donath, Edda Moser, Anna Reynolds, Berliner Philharmoniker, Herbert von Karajan / Wagner: Das Rheingold (10-11)
Helen Donath, Edda Moser, Anna Reynolds, Zoltan Kelemen, Berliner Philharmoniker, Herbert von Karajan / Wagner: Das Rheingold (12-15)
Josephine Veasey, Dietrich Fischer-Dieskau, Berliner Philharmoniker, Herbert von Karajan / Wagner: Das Rheingold (16)
Josephine Veasey, Gerhard Stolze, Dietrich Fischer-Dieskau, Martti Talvela, Karl Ridderbusch, Berliner Philharmoniker, Herbert von Karajan / Wagner: Das Rheingold (17)
Josephine Veasey, Gerhard Stolze, Donald Grobe, Dietrich Fischer-Dieskau, Robert Kerns, Berliner Philharmoniker, Herbert von Karajan / Wagner: Das Rheingold (18)
Josephine Veasey, Gerhard Stolze, Donald Grobe, Dietrich Fischer-Dieskau, Robert Kerns, Karl Ridderbusch, Martti Talvela, Berliner Philharmoniker, Herbert von Karajan / Wagner: Das Rheingold (19)
Josephine Veasey, Gerhard Stolze, Donald Grobe, Robert Kerns, Dietrich Fischer-Dieskau, Karl Ridderbusch, Berliner Philharmoniker, Herbert von Karajan / Wagner: Das Rheingold (20)
Simone Mangelsdorff, Dietrich Fischer-Dieskau, Karl Ridderbusch, Martti Talvela, Berliner Philharmoniker, Herbert von Karajan / Wagner: Das Rheingold (21)
Simone Mangelsdorff, Josephine Veasey, Dietrich Fischer-Dieskau, Berliner Philharmoniker, Herbert von Karajan / Wagner: Das Rheingold (22)
Simone Mangelsdorff, Josephine Veasey, Donald Grobe, Gerhard Stolze, Robert Kerns, Berliner Philharmoniker, Herbert von Karajan / Wagner: Das Rheingold (23)
Simone Mangelsdorff, Josephine Veasey, Donald Grobe, Robert Kerns, Dietrich Fischer-Dieskau, Karl Ridderbusch, Martti Talvela, Berliner Philharmoniker, Herbert von Karajan / Wagner: Das Rheingold (24)
––––––––––––––––––––––––––––––––––––––––

DR Peak RMS Duration Track
––––––––––––––––––––––––––––––––––––––––
DR14 -3.67 dB -27.40 dB 4:36 01-Das Rheingold, WWV 86A - Vorspiel
DR10 -12.81 dB -27.45 dB 1:20 09-Das Rheingold, WWV 86A / Zweite Szene - Einleitung
DR11 -1.10 dB -17.08 dB 2:45 21-Das Rheingold, WWV 86A / Zweite Szene - Verwandlungsmusik
DR14 -0.93 dB -22.00 dB 5:29 23-Das Rheingold, WWV 86A / Dritte Szene - Nibelheim hier
DR13 -1.33 dB -19.98 dB 2:21 12-Das Rheingold, WWV 86A / Zweite Szene - Sanft schloss Schlaf dein Aug'
DR14 -3.54 dB -22.14 dB 4:22 13-Das Rheingold, WWV 86A / Zweite Szene - Was sagst du? Ha, sinnst du Verrat?
DR12 -4.77 dB -24.18 dB 3:22 08-Das Rheingold, WWV 86A / Erste Szene - Haltet den Räuber!
DR13 -0.73 dB -19.99 dB 1:35 24-Das Rheingold, WWV 86A / Dritte Szene - Nehmt euch in acht! Alberich naht!
DR12 -3.15 dB -20.43 dB 2:44 22-Das Rheingold, WWV 86A / Dritte Szene - Hehe! hehe! hieher! hieher! Tückischer Zwerg!
DR11 -7.27 dB -22.89 dB 1:13 02-Das Rheingold, WWV 86A / Erste Szene - Weia! Waga! Woge du Welle!
DR12 -3.46 dB -22.07 dB 1:40 06-Das Rheingold, WWV 86A / Erste Szene - Nur wer der Minne Macht entsagt
DR14 -7.45 dB -25.53 dB 1:18 03-Das Rheingold, WWV 86A / Erste Szene - He he! Ihr Nicker!
DR15 -3.49 dB -23.64 dB 7:19 04-Das Rheingold, WWV 86A / Erste Szene - Garstig glatter glitschriger Glimmer!
DR12 -2.86 dB -21.38 dB 4:08 05-Das Rheingold, WWV 86A / Erste Szene - Lugt, Schwestern! Die Weckerin lacht in den Grund
DR11 -2.80 dB -19.38 dB 1:43 07-Das Rheingold, WWV 86A / Erste Szene - Der Welt Erbe gewänn' ich zu eigen durch dich?
DR15 -2.70 dB -23.88 dB 6:27 10-Das Rheingold, WWV 86A / Zweite Szene - Wotan! Gemahl! Erwache!
DR15 -3.20 dB -24.82 dB 6:58 16-Das Rheingold, WWV 86A / Zweite Szene - Immer ist Undank Loges Lohn!
DR14 -1.67 dB -22.85 dB 1:56 20-Das Rheingold, WWV 86A / Zweite Szene - Wotan, Gemahl, unsel'ger Mann!
DR16 -3.50 dB -24.43 dB 3:33 15-Das Rheingold, WWV 86A / Zweite Szene - Endlich, Loge! Eiltest du so
DR15 -2.64 dB -24.24 dB 3:11 17-Das Rheingold, WWV 86A / Zweite Szene - Ein Runenzauber zwingt das Gold zum Reif
DR13 -2.20 dB -20.54 dB 1:52 18-Das Rheingold, WWV 86A / Zweite Szene - Hör', Wotan, der Harrenden Wort!
DR11 -3.05 dB -19.76 dB 1:44 11-Das Rheingold, WWV 86A / Zweite Szene - So schirme sie jetzt
DR16 -2.96 dB -25.53 dB 4:36 19-Das Rheingold, WWV 86A / Zweite Szene - Schwester! Brüder! Rettet! Helft!
DR11 -2.36 dB -18.99 dB 1:36 14-Das Rheingold, WWV 86A / Zweite Szene - Du da, folge uns!
––––––––––––––––––––––––––––––––––––––––

Number of tracks: 24
Official DR value: DR13

Samplerate: 96000 Hz
Channels: 2
Bits per sample: 24
Bitrate: 2724 kbps
Codec: FLAC
================================================================================


CD 2: Wagner: Das Rheingold

Richard Wagner (1813 - 1883)

Das Rheingold, WWV 86A

01. Zittre und zage, gezähmtes Heer 03:52
02. Die in linder Lüfte Wehn da oben ihr lebt 06:44
03. Ohe! Ohe! Schreckliche Schlange 02:29
04. Dort die Kröte! Greife sie rasch! 04:16

Vierte Szene
05. Da, Vetter, sitze du fest! 02:21
06. Wohlan, die Niblungen rief ich mir nah 03:00
07. Gezahlt hab' ich, nun lasst mich ziehn 05:17
08. Ist er gelöst? 04:08
09. Lauschtest du seinem Liebesgruß? 03:07
10. Lieblichste Schwester, süsseste Lust! 02:46
11. Gepflanzt sind die Pfähle nach Pfandes Mass 05:55
12. Weiche, Wotan, weiche! Flieh des Ringes Fluch! 05:05
13. Soll ich sorgen und fürchten 02:27
14. Halt, du Gieriger! Gönne mir auch was! 01:11
15. Nun blinzle nach Freias Blick 03:58
16. He da! He da! He do! Zu mir, du Gedüft! 02:10
17. Bruder, hieher! Weise der Brücke den Weg! … Zur Burg… 02:10
18. Abendlich strahlt der Sonne Auge 01:46
19. So grüss' ich die Burg 02:07
20. Rheingold! Rheingold! 03:21

foobar2000 1.3.7 / Dynamic Range Meter 1.1.1
log date: 2017-10-24 02:57:35

––––––––––––––––––––––––––––––––––––––––
Analyzed: Dietrich Fischer-Dieskau, Berliner Philharmoniker, Herbert von Karajan / Wagner: Das Rheingold (1)
Donald Grobe, Robert Kerns, Berliner Philharmoniker, Herbert von Karajan / Wagner: Das Rheingold (2)
Gerhard Stolze, Dietrich Fischer-Dieskau, Zoltan Kelemen, Berliner Philharmoniker, Herbert von Karajan / Wagner: Das Rheingold (3-8)
Gerhard Stolze, Martti Talvela, Karl Ridderbusch, Berliner Philharmoniker, Herbert von Karajan / Wagner: Das Rheingold (9)
Gerhard Stolze, Zoltan Kelemen, Berliner Philharmoniker, Herbert von Karajan / Wagner: Das Rheingold (10)
Helen Donath, Edda Moser, Anna Reynolds, Gerhard Stolze, Dietrich Fischer-Dieskau, Berliner Philharmoniker, Herbert von Karajan / Wagner: Das Rheingold (11)
Josephine Veasey, Gerhard Stolze, Dietrich Fischer-Dieskau, Berliner Philharmoniker, Herbert von Karajan / Wagner: Das Rheingold (12)
Josephine Veasey, Gerhard Stolze, Dietrich Fischer-Dieskau, Robert Kerns, Karl Ridderbusch, Berliner Philharmoniker, Herbert von Karajan / Wagner: Das Rheingold (13)
Josephine Veasey, Gerhard Stolze, Donald Grobe, Dietrich Fischer-Dieskau, Robert Kerns, Berliner Philharmoniker, Herbert von Karajan / Wagner: Das Rheingold (14)
Josephine Veasey, Martti Talvela, Dietrich Fischer-Dieskau, Berliner Philharmoniker, Herbert von Karajan / Wagner: Das Rheingold (15)
Josephine Veasey, Simone Mangelsdorff, Gerhard Stolze, Donald Grobe, Dietrich Fischer-Dieskau, Robert Kerns, Karl Ridderbusch, Martti Talvela, Berliner Philharmoniker, Herbert von Karajan / Wagner: Das Rheingold (16)
Oralia Dominguez, Dietrich Fischer-Dieskau, Berliner Philharmoniker, Herbert von Karajan / Wagner: Das Rheingold (17)
Robert Kerns, Berliner Philharmoniker, Herbert von Karajan / Wagner: Das Rheingold (18)
Simone Mangelsdorff, Josephine Veasey, Donald Grobe, Dietrich Fischer-Dieskau, Robert Kerns, Berliner Philharmoniker, Herbert von Karajan / Wagner: Das Rheingold (19)
Zoltan Kelemen, Dietrich Fischer-Dieskau, Berliner Philharmoniker, Herbert von Karajan / Wagner: Das Rheingold (20)
––––––––––––––––––––––––––––––––––––––––

DR Peak RMS Duration Track
––––––––––––––––––––––––––––––––––––––––
DR13 -3.13 dB -22.55 dB 1:46 42-Das Rheingold, WWV 86A / Vierte Szene - Abendlich strahlt der Sonne Auge
DR11 -2.79 dB -22.15 dB 2:10 41-Das Rheingold, WWV 86A / Vierte Szene - Bruder, hieher! Weise der Brücke den Weg! … Zur Burg führt die Brücke
DR13 -2.80 dB -21.37 dB 3:52 25-Das Rheingold, WWV 86A / Dritte Szene - Zittre und zage, gezähmtes Heer
DR15 -2.87 dB -23.48 dB 6:44 26-Das Rheingold, WWV 86A / Dritte Szene - Die in linder Lüfte Wehn da oben ihr lebt
DR11 -3.38 dB -20.80 dB 2:29 27-Das Rheingold, WWV 86A / Dritte Szene - Ohe! Ohe! Schreckliche Schlange
DR14 -4.16 dB -24.44 dB 2:21 29-Das Rheingold, WWV 86A / Vierte Szene - Da, Vetter, sitze du fest!
DR14 -2.26 dB -22.17 dB 5:17 31-Das Rheingold, WWV 86A / Vierte Szene - Gezahlt hab' ich, nun lasst mich ziehn
DR14 -3.90 dB -24.31 dB 4:08 32-Das Rheingold, WWV 86A / Vierte Szene - Ist er gelöst?
DR11 -1.25 dB -20.02 dB 1:11 38-Das Rheingold, WWV 86A / Vierte Szene - Halt, du Gieriger! Gönne mir auch was!
DR12 -2.08 dB -20.12 dB 4:16 28-Das Rheingold, WWV 86A / Dritte Szene - Dort die Kröte! Greife sie rasch!
DR10 -0.51 dB -17.70 dB 3:21 44-Das Rheingold, WWV 86A / Vierte Szene - Rheingold! Rheingold!
DR12 -1.25 dB -20.06 dB 2:07 43-Das Rheingold, WWV 86A / Vierte Szene - So grüss' ich die Burg
DR14 -3.08 dB -25.28 dB 3:58 39-Das Rheingold, WWV 86A / Vierte Szene - Nun blinzle nach Freias Blick
DR11 -3.09 dB -22.22 dB 3:07 33-Das Rheingold, WWV 86A / Vierte Szene - Lauschtest du seinem Liebesgruß?
DR13 -5.35 dB -23.73 dB 2:46 34-Das Rheingold, WWV 86A / Vierte Szene - Lieblichste Schwester, süsseste Lust!
DR13 -2.27 dB -21.21 dB 5:55 35-Das Rheingold, WWV 86A / Vierte Szene - Gepflanzt sind die Pfähle nach Pfandes Mass
DR14 -6.18 dB -26.90 dB 5:05 36-Das Rheingold, WWV 86A / Vierte Szene - Weiche, Wotan, weiche! Flieh des Ringes Fluch!
DR10 -3.23 dB -18.89 dB 2:10 40-Das Rheingold, WWV 86A / Vierte Szene - He da! He da! He do! Zu mir, du Gedüft!
DR12 -1.59 dB -19.51 dB 2:27 37-Das Rheingold, WWV 86A / Vierte Szene - Soll ich sorgen und fürchten
DR12 -3.78 dB -22.99 dB 3:00 30-Das Rheingold, WWV 86A / Vierte Szene - Wohlan, die Niblungen rief ich mir nah
––––––––––––––––––––––––––––––––––––––––

Number of tracks: 20
Official DR value: DR12

Samplerate: 96000 Hz
Channels: 2
Bits per sample: 24
Bitrate: 2587 kbps
Codec: FLAC
================================================================================


CD 3: Wagner: Die Walküre

Richard Wagner (1813 - 1883)

Die Walküre, WWV 86B

Erster Akt
01. Orchestervorspiel 03:27
02. Wes Herd dies auch sei, hier muss ich rasten 08:26
03. Einen Unseligen labtest du 03:51
04. Müd am Herd fand ich den Mann 05:13
05. Friedmund darf ich nicht heißen 06:20
06. Die so leidig Los dir beschied 04:42
07. Ich weiss ein wildes Geschlecht 05:55
08. Ein Schwert verhiess mir der Vater 06:22
09. Schläfst du, Gast? 06:55
10. Winterstürme wichen dem Wonnemond 03:09
11. Du bist der Lenz 02:03
12. O süsseste Wonne! Seligstes Weib! 06:25
13. War Wälse dein Vater, und bist du ein Wälsung 02:01
14. Siegmund, den Wälsung, siehst du, Weib! 02:38

foobar2000 1.3.7 / Dynamic Range Meter 1.1.1
log date: 2017-10-24 02:58:23

––––––––––––––––––––––––––––––––––––––––
Analyzed: Berliner Philharmoniker, Herbert von Karajan / Wagner: Die Walküre (1)
Gundula Janowitz, Berliner Philharmoniker, Herbert von Karajan / Wagner: Die Walküre (2)
Gundula Janowitz, Jon Vickers, Berliner Philharmoniker, Herbert von Karajan / Wagner: Die Walküre (3-7)
Gundula Janowitz, Jon Vickers, Martti Talvela, Berliner Philharmoniker, Herbert von Karajan / Wagner: Die Walküre (8-10)
Jon Vickers, Berliner Philharmoniker, Herbert von Karajan / Wagner: Die Walküre (11-12)
Jon Vickers, Gundula Janowitz, Berliner Philharmoniker, Herbert von Karajan / Wagner: Die Walküre (13)
Martti Talvela, Berliner Philharmoniker, Herbert von Karajan / Wagner: Die Walküre (14)
––––––––––––––––––––––––––––––––––––––––

DR Peak RMS Duration Track
––––––––––––––––––––––––––––––––––––––––
DR10 -2.54 dB -17.53 dB 3:27 01-Die Walküre, WWV 86B / Erster Akt - Orchestervorspiel
DR10 -3.86 dB -19.65 dB 2:03 11-Die Walküre, WWV 86B / Erster Akt - Du bist der Lenz
DR15 -4.75 dB -26.16 dB 8:26 02-Die Walküre, WWV 86B / Erster Akt - Wes Herd dies auch sei, hier muss ich rasten
DR14 -2.01 dB -23.06 dB 3:51 03-Die Walküre, WWV 86B / Erster Akt - Einen Unseligen labtest du
DR13 -2.28 dB -21.56 dB 6:55 09-Die Walküre, WWV 86B / Erster Akt - Schläfst du, Gast?
DR12 -1.34 dB -18.14 dB 2:01 13-Die Walküre, WWV 86B / Erster Akt - War Wälse dein Vater, und bist du ein Wälsung
DR11 -1.87 dB -17.34 dB 2:38 14-Die Walküre, WWV 86B / Erster Akt - Siegmund, den Wälsung, siehst du, Weib!
DR15 -8.12 dB -28.12 dB 5:13 04-Die Walküre, WWV 86B / Erster Akt - Müd am Herd fand ich den Mann
DR15 -0.46 dB -22.96 dB 6:20 05-Die Walküre, WWV 86B / Erster Akt - Friedmund darf ich nicht heißen
DR14 -1.52 dB -22.81 dB 4:42 06-Die Walküre, WWV 86B / Erster Akt - Die so leidig Los dir beschied
DR14 -1.16 dB -23.06 dB 6:22 08-Die Walküre, WWV 86B / Erster Akt - Ein Schwert verhiess mir der Vater
DR12 -5.08 dB -23.19 dB 3:09 10-Die Walküre, WWV 86B / Erster Akt - Winterstürme wichen dem Wonnemond
DR14 -2.93 dB -22.38 dB 6:25 12-Die Walküre, WWV 86B / Erster Akt - O süsseste Wonne! Seligstes Weib!
DR14 -2.30 dB -23.70 dB 5:55 07-Die Walküre, WWV 86B / Erster Akt - Ich weiss ein wildes Geschlecht
––––––––––––––––––––––––––––––––––––––––

Number of tracks: 14
Official DR value: DR13

Samplerate: 96000 Hz
Channels: 2
Bits per sample: 24
Bitrate: 2556 kbps
Codec: FLAC
================================================================================


CD 4: Wagner: Die Walküre

Richard Wagner (1813 - 1883)

Die Walküre, WWV 86B

Zweiter Akt
01. Vorspiel - Nun zäume dein Roß 02:37
02. Hojotoho! Hojotoho! 02:18
03. Der alte Sturm, die alte Müh'! 04:57
04. So ist es denn aus mit den ewigen Göttern 09:19
05. Was verlangst du? 02:28
06. Deiner ew'gen Gattin heilige Ehre 03:45
07. Schlimm, fürcht ich, schloss der Streit 10:38
08. Ein andres ist's: achte es wohl 06:41
09. So nimmst du von Siegmund den Sieg? 04:07
10. So nimm meinen Segen, Niblungen-Sohn 04:47

foobar2000 1.3.7 / Dynamic Range Meter 1.1.1
log date: 2017-10-24 02:59:05

––––––––––––––––––––––––––––––––––––––––
Analyzed: Josephine Veasey, Thomas Stewart, Berliner Philharmoniker, Herbert von Karajan / Wagner: Die Walküre (1-3)
Régine Crespin, Berliner Philharmoniker, Herbert von Karajan / Wagner: Die Walküre (4)
Régine Crespin, Josephine Veasey, Thomas Stewart, Berliner Philharmoniker, Herbert von Karajan / Wagner: Die Walküre (5)
Régine Crespin, Thomas Stewart, Berliner Philharmoniker, Herbert von Karajan / Wagner: Die Walküre (6-9)
Thomas Stewart, Berliner Philharmoniker, Herbert von Karajan / Wagner: Die Walküre (10)
––––––––––––––––––––––––––––––––––––––––

DR Peak RMS Duration Track
––––––––––––––––––––––––––––––––––––––––
DR13 -2.13 dB -22.28 dB 4:57 17-Die Walküre, WWV 86B / Zweiter Akt - Der alte Sturm, die alte Müh'!
DR13 -1.79 dB -20.48 dB 9:19 18-Die Walküre, WWV 86B / Zweiter Akt - So ist es denn aus mit den ewigen Göttern
DR12 -5.27 dB -23.96 dB 3:45 20-Die Walküre, WWV 86B / Zweiter Akt - Deiner ew'gen Gattin heilige Ehre
DR10 -3.21 dB -17.86 dB 2:18 16-Die Walküre, WWV 86B / Zweiter Akt - Hojotoho! Hojotoho!
DR11 -2.10 dB -19.87 dB 2:28 19-Die Walküre, WWV 86B / Zweiter Akt - Was verlangst du?
DR16 -2.69 dB -26.63 dB 10:38 21-Die Walküre, WWV 86B / Zweiter Akt - Schlimm, fürcht ich, schloss der Streit
DR13 -2.78 dB -22.98 dB 6:41 22-Die Walküre, WWV 86B / Zweiter Akt - Ein andres ist's: achte es wohl
DR11 -2.44 dB -19.51 dB 4:07 23-Die Walküre, WWV 86B / Zweiter Akt - So nimmst du von Siegmund den Sieg?
DR12 -0.47 dB -18.45 dB 4:47 24-Die Walküre, WWV 86B / Zweiter Akt - So nimm meinen Segen, Niblungen-Sohn
DR11 -1.65 dB -15.61 dB 2:37 15-Die Walküre, WWV 86B / Zweiter Akt - Vorspiel - Nun zäume dein Roß
––––––––––––––––––––––––––––––––––––––––

Number of tracks: 10
Official DR value: DR12

Samplerate: 96000 Hz
Channels: 2
Bits per sample: 24
Bitrate: 2901 kbps
Codec: FLAC
================================================================================


CD 5: Wagner: Die Walküre

Richard Wagner (1813 - 1883)

Die Walküre, WWV 86B

01. So sah ich Siegvater nie 03:11
02. Raste nun hier; gönne dir Ruh! 12:13
03. Siegmund! Sieh auf mich! 10:43
04. Du sahest der Walküre sehrenden Blick 04:40
05. So jung und schön erschimmerst du mir 04:19
06. Zauberfest bezähmt ein Schlaf der Holden Schmerz und Harm 03:04
07. Der dort mich ruft, rüste sich nun 03:33
08. Zu Ross, dass ich dich rette! 03:35

foobar2000 1.3.7 / Dynamic Range Meter 1.1.1
log date: 2017-10-24 02:59:44

––––––––––––––––––––––––––––––––––––––––
Analyzed: Gundula Janowitz, Jon Vickers, Berliner Philharmoniker, Herbert von Karajan / Wagner: Die Walküre (1)
Gundula Janowitz, Régine Crespin, Jon Vickers, Martti Talvela, Berliner Philharmoniker, Herbert von Karajan / Wagner: Die Walküre (2)
Jon Vickers, Berliner Philharmoniker, Herbert von Karajan / Wagner: Die Walküre (3)
Régine Crespin, Berliner Philharmoniker, Herbert von Karajan / Wagner: Die Walküre (4)
Régine Crespin, Jon Vickers, Berliner Philharmoniker, Herbert von Karajan / Wagner: Die Walküre (5-7)
Régine Crespin, Thomas Stewart, Berliner Philharmoniker, Herbert von Karajan / Wagner: Die Walküre (8)
––––––––––––––––––––––––––––––––––––––––

DR Peak RMS Duration Track
––––––––––––––––––––––––––––––––––––––––
DR13 -1.45 dB -20.59 dB 12:13 26-Die Walküre, WWV 86B / Zweiter Akt - Raste nun hier; gönne dir Ruh!
DR12 -0.55 dB -17.77 dB 3:33 31-Die Walküre, WWV 86B / Zweiter Akt - Der dort mich ruft, rüste sich nun
DR12 -12.69 dB -33.55 dB 3:04 30-Die Walküre, WWV 86B / Zweiter Akt - Zauberfest bezähmt ein Schlaf der Holden Schmerz und Harm
DR12 -4.99 dB -30.25 dB 3:11 25-Die Walküre, WWV 86B / Zweiter Akt - So sah ich Siegvater nie
DR17 -3.53 dB -28.97 dB 10:43 27-Die Walküre, WWV 86B / Zweiter Akt - Siegmund! Sieh auf mich!
DR13 -2.21 dB -21.18 dB 4:40 28-Die Walküre, WWV 86B / Zweiter Akt - Du sahest der Walküre sehrenden Blick
DR11 -1.95 dB -17.65 dB 4:19 29-Die Walküre, WWV 86B / Zweiter Akt - So jung und schön erschimmerst du mir
DR11 -1.53 dB -18.90 dB 3:35 32-Die Walküre, WWV 86B / Zweiter Akt - Zu Ross, dass ich dich rette!
––––––––––––––––––––––––––––––––––––––––

Number of tracks: 8
Official DR value: DR12

Samplerate: 96000 Hz
Channels: 2
Bits per sample: 24
Bitrate: 2605 kbps
Codec: FLAC
================================================================================


CD 6: Wagner: Die Walküre

Richard Wagner (1813 - 1883)

Die Walküre, WWV 86B

Dritter Akt
01. Hojotoho! Heiaha! 08:10
02. Schützt mich und helft in höchster Not! 03:12
03. Nicht sehre dich Sorge um mich 06:49
04. Wo ist Brünnhild', wo die Verbrecherin? 03:56
05. Hier bin ich, Vater: gebiete die Strafe! 08:56
06. Einleitung (Finale) 01:22
07. War es so schmählich, was ich verbrach 09:18
08. So tatest du, was so gern zu tun ich begehrt 09:08
09. Nicht streb, o Maid, den Mut mir zu stören 04:36
10. Leb wohl, du kühnes, herrliches Kind! 05:08
11. Der Augen leuchtendes Paar 06:58
12. Loge, hör! Lausche hieher! 01:22
13. Feuerzauber 03:52

foobar2000 1.3.7 / Dynamic Range Meter 1.1.1
log date: 2017-10-24 03:00:35

––––––––––––––––––––––––––––––––––––––––
Analyzed: Berliner Philharmoniker, Herbert von Karajan / Wagner: Die Walküre (1-2)
Gundula Janowitz, Régine Crespin, Ingrid Steger, Liselotte Rebmann, Lilo Brockhaus, Danica Mastilovic, Carlotta Ordassy, Barbro Ericson, Cvetka Ahlin, Helga Jenckel, Thomas Stewart, Berliner Philharmoniker, Herbert von Karajan / Wagner: Die Walküre (3)
Liselotte Rebmann, Danica Mastilovic, Ingrid Steger, Lilo Brockhaus, Carlotta Ordassy, Barbro Ericson, Cvetka Ahlin, Helga Jenckel, Berliner Philharmoniker, Herbert von Karajan / Wagner: Die Walküre (4)
Liselotte Rebmann, Ingrid Steger, Lilo Brockhaus, Danica Mastilovic, Carlotta Ordassy, Barbro Ericson, Cvetka Ahlin, Helga Jenckel, Thomas Stewart, Berliner Philharmoniker, Herbert von Karajan / Wagner: Die Walküre (5)
Régine Crespin, Liselotte Rebmann, Ingrid Steger, Lilo Brockhaus, Danica Mastilovic, Carlotta Ordassy, Barbro Ericson, Cvetka Ahlin, Helga Jenckel, Berliner Philharmoniker, Herbert von Karajan / Wagner: Die Walküre (6)
Régine Crespin, Liselotte Rebmann, Ingrid Steger, Lilo Brockhaus, Danica Mastilovic, Carlotta Ordassy, Barbro Ericson, Cvetka Ahlin, Helga Jenckel, Thomas Stewart, Berliner Philharmoniker, Herbert von Karajan / Wagner: Die Walküre (7)
Régine Crespin, Thomas Stewart, Berliner Philharmoniker, Herbert von Karajan / Wagner: Die Walküre (8-10)
Thomas Stewart, Berliner Philharmoniker, Herbert von Karajan / Wagner: Die Walküre (11-13)
––––––––––––––––––––––––––––––––––––––––

DR Peak RMS Duration Track
––––––––––––––––––––––––––––––––––––––––
DR13 -6.97 dB -30.20 dB 1:22 38-Die Walküre, WWV 86B / Dritter Akt - Einleitung (Finale)
DR11 -3.60 dB -20.34 dB 3:52 45-Die Walküre, WWV 86B / Dritter Akt - Feuerzauber
DR11 -2.03 dB -17.95 dB 6:49 35-Die Walküre, WWV 86B / Dritter Akt - Nicht sehre dich Sorge um mich
DR11 -2.20 dB -16.98 dB 8:10 33-Die Walküre, WWV 86B / Dritter Akt - Hojotoho! Heiaha!
DR13 -2.11 dB -20.82 dB 3:56 36-Die Walküre, WWV 86B / Dritter Akt - Wo ist Brünnhild', wo die Verbrecherin?
DR11 -3.47 dB -18.89 dB 3:12 34-Die Walküre, WWV 86B / Dritter Akt - Schützt mich und helft in höchster Not!
DR13 -1.16 dB -19.24 dB 8:56 37-Die Walküre, WWV 86B / Dritter Akt - Hier bin ich, Vater: gebiete die Strafe!
DR14 -4.32 dB -24.15 dB 9:18 39-Die Walküre, WWV 86B / Dritter Akt - War es so schmählich, was ich verbrach
DR14 -4.03 dB -25.49 dB 9:08 40-Die Walküre, WWV 86B / Dritter Akt - So tatest du, was so gern zu tun ich begehrt
DR11 -2.80 dB -20.65 dB 4:36 41-Die Walküre, WWV 86B / Dritter Akt - Nicht streb, o Maid, den Mut mir zu stören
DR11 -1.52 dB -18.09 dB 5:08 42-Die Walküre, WWV 86B / Dritter Akt - Leb wohl, du kühnes, herrliches Kind!
DR14 -8.36 dB -30.13 dB 6:58 43-Die Walküre, WWV 86B / Dritter Akt - Der Augen leuchtendes Paar
DR13 -6.69 dB -23.86 dB 1:22 44-Die Walküre, WWV 86B / Dritter Akt - Loge, hör! Lausche hieher!
––––––––––––––––––––––––––––––––––––––––

Number of tracks: 13
Official DR value: DR12

Samplerate: 96000 Hz
Channels: 2
Bits per sample: 24
Bitrate: 2673 kbps
Codec: FLAC
================================================================================


CD 7: Wagner: Siegfried

Richard Wagner (1813 - 1883)

Siegfried, WWV 86C

Erster Aufzug
01. Vorspiel 04:45
02. Zwangvolle Plage! Müh ohne Zweck! 03:38
03. Hoiho! Hoiho! Hau ein! 04:04
04. Als zullendes Kind zog ich dich auf 04:36
05. Es sangen die Vöglein so selig im Lenz 04:33
06. Einst lag wimmernd ein Weib da draussen im wilden Wald 08:12
07. Heil dir, weiser Schmied! 04:59
08. Wie werd' ich den Lauernden los? 08:46
09. Nun rede, weiser Zwerg 03:32
10. Nun, ehrlicher Zwerg, sag mir zum ersten 05:22
11. Dreimal solltest du fragen 02:26
12. Verfluchtes Licht! 01:33

foobar2000 1.3.7 / Dynamic Range Meter 1.1.1
log date: 2017-10-24 03:01:23

––––––––––––––––––––––––––––––––––––––––
Analyzed: Berliner Philharmoniker, Herbert von Karajan / Wagner: Siegfried (1)
Gerhard Stolze, Berliner Philharmoniker, Herbert von Karajan / Wagner: Siegfried (2)
Gerhard Stolze, Jess Thomas, Berliner Philharmoniker, Herbert von Karajan / Wagner: Siegfried (3-5)
Gerhard Stolze, Thomas Stewart, Berliner Philharmoniker, Herbert von Karajan / Wagner: Siegfried (6-9)
Jess Thomas, Gerhard Stolze, Berliner Philharmoniker, Herbert von Karajan / Wagner: Siegfried (10-11)
Thomas Stewart, Berliner Philharmoniker, Herbert von Karajan / Wagner: Siegfried (12)
––––––––––––––––––––––––––––––––––––––––

DR Peak RMS Duration Track
––––––––––––––––––––––––––––––––––––––––
DR14 -4.70 dB -26.33 dB 4:45 01-Siegfried, WWV 86C / Erster Aufzug - Vorspiel
DR12 -2.12 dB -20.56 dB 3:38 02-Siegfried, WWV 86C / Erster Aufzug - Zwangvolle Plage! Müh ohne Zweck!
DR15 -3.33 dB -23.93 dB 4:36 04-Siegfried, WWV 86C / Erster Aufzug - Als zullendes Kind zog ich dich auf
DR13 -1.67 dB -21.97 dB 8:12 06-Siegfried, WWV 86C / Erster Aufzug - Einst lag wimmernd ein Weib da draussen im wilden Wald
DR11 -2.40 dB -20.10 dB 1:33 12-Siegfried, WWV 86C / Erster Aufzug - Verfluchtes Licht!
DR13 -3.41 dB -20.96 dB 4:59 07-Siegfried, WWV 86C / Erster Aufzug - Heil dir, weiser Schmied!
DR14 -2.21 dB -21.31 dB 8:46 08-Siegfried, WWV 86C / Erster Aufzug - Wie werd' ich den Lauernden los?
DR13 -1.61 dB -20.95 dB 3:32 09-Siegfried, WWV 86C / Erster Aufzug - Nun rede, weiser Zwerg
DR14 -2.83 dB -22.76 dB 5:22 10-Siegfried, WWV 86C / Erster Aufzug - Nun, ehrlicher Zwerg, sag mir zum ersten
DR13 -1.33 dB -19.52 dB 4:04 03-Siegfried, WWV 86C / Erster Aufzug - Hoiho! Hoiho! Hau ein!
DR14 -0.96 dB -22.03 dB 4:33 05-Siegfried, WWV 86C / Erster Aufzug - Es sangen die Vöglein so selig im Lenz
DR11 -1.16 dB -18.73 dB 2:26 11-Siegfried, WWV 86C / Erster Aufzug - Dreimal solltest du fragen
––––––––––––––––––––––––––––––––––––––––

Number of tracks: 12
Official DR value: DR13

Samplerate: 96000 Hz
Channels: 2
Bits per sample: 24
Bitrate: 2815 kbps
Codec: FLAC
================================================================================


CD 8: Wagner: Siegfried

Richard Wagner (1813 - 1883)

Siegfried, WWV 86C

Erster Akt
01. Bist du es, Kind? 03:04
02. Fühltest du nie im finstren Wald 05:07
03. Hättest du fleissig die Kunst gepflegt 03:13
04. Notung! Notung! Neidliches Schwert! 08:26
05. Hoho! Hoho! Hohei! Schmiede, mein Hammer, ein hartes… 03:23
06. Den der Bruder schuf, den schimmernden Reif 02:58

Zweiter Aufzug
07. Vorspiel 05:17
08. In Wald und Nacht vor Neidhöhl' halt' ich Wacht 02:40
09. Wer naht dort schimmernd im Schatten? 08:19
10. Mit Mime räng' ich allein um den Ring? 07:02
11. Wir sind zur Stelle! Bleib hier stehn! 06:55
12. Dass der mein Vater nicht ist 09:43

foobar2000 1.3.7 / Dynamic Range Meter 1.1.1
log date: 2017-10-24 03:02:17

––––––––––––––––––––––––––––––––––––––––
Analyzed: Berliner Philharmoniker, Herbert von Karajan / Wagner: Siegfried (1)
Gerhard Stolze, Jess Thomas, Berliner Philharmoniker, Herbert von Karajan / Wagner: Siegfried (2-6)
Jess Thomas, Berliner Philharmoniker, Herbert von Karajan / Wagner: Siegfried (7)
Jess Thomas, Gerhard Stolze, Berliner Philharmoniker, Herbert von Karajan / Wagner: Siegfried (8-9)
Thomas Stewart, Zoltan Kelemen, Berliner Philharmoniker, Herbert von Karajan / Wagner: Siegfried (10)
Thomas Stewart, Zoltan Kelemen, Karl Ridderbusch, Berliner Philharmoniker, Herbert von Karajan / Wagner: Siegfried (11)
Zoltan Kelemen, Berliner Philharmoniker, Herbert von Karajan / Wagner: Siegfried (12)
––––––––––––––––––––––––––––––––––––––––

DR Peak RMS Duration Track
––––––––––––––––––––––––––––––––––––––––
DR15 -1.84 dB -24.62 dB 5:17 19-Siegfried, WWV 86C / Zweiter Aufzug - Vorspiel
DR14 -4.71 dB -25.05 dB 3:04 13-Siegfried, WWV 86C / Erster Aufzug - Bist du es, Kind?
DR13 -3.78 dB -22.96 dB 5:07 14-Siegfried, WWV 86C / Erster Aufzug - Fühltest du nie im finstren Wald
DR12 -3.16 dB -20.59 dB 3:13 15-Siegfried, WWV 86C / Erster Aufzug - Hättest du fleissig die Kunst gepflegt
DR12 -0.39 dB -17.92 dB 2:58 18-Siegfried, WWV 86C / Erster Aufzug - Den der Bruder schuf, den schimmernden Reif
DR15 -0.96 dB -21.85 dB 6:55 23-Siegfried, WWV 86C / Zweiter Aufzug - Wir sind zur Stelle! Bleib hier stehn!
DR18 -2.78 dB -28.31 dB 9:43 24-Siegfried, WWV 86C / Zweiter Aufzug - Dass der mein Vater nicht ist
DR12 -2.94 dB -19.93 dB 8:26 16-Siegfried, WWV 86C / Erster Aufzug - Notung! Notung! Neidliches Schwert!
DR12 -1.40 dB -17.87 dB 3:23 17-Siegfried, WWV 86C / Erster Aufzug - Hoho! Hoho! Hohei! Schmiede, mein Hammer, ein hartes Schwert!
DR14 -1.14 dB -20.12 dB 8:19 21-Siegfried, WWV 86C / Zweiter Aufzug - Wer naht dort schimmernd im Schatten?
DR15 -1.59 dB -22.73 dB 7:02 22-Siegfried, WWV 86C / Zweiter Aufzug - Mit Mime räng' ich allein um den Ring?
DR13 -3.33 dB -24.10 dB 2:40 20-Siegfried, WWV 86C / Zweiter Aufzug - In Wald und Nacht vor Neidhöhl' halt' ich Wacht
––––––––––––––––––––––––––––––––––––––––

Number of tracks: 12
Official DR value: DR14

Samplerate: 96000 Hz
Channels: 2
Bits per sample: 24
Bitrate: 2729 kbps
Codec: FLAC
================================================================================


CD 9: Wagner: Siegfried

Richard Wagner (1813 - 1883)

Siegfried, WWV 86C


Zweiter Aufzug
01. Siegfrieds Hornruf - Haha! Da hätte mein Lied mir was… 05:13
02. Wer bist du, kühner Knabe, der das Herz mir traf? 04:49
03. Ist mir doch fast, als sprächen die Vöglein zu mir! 01:48
04. Wohin schleichst du eilig und schlau, schlimmer Gesell? 05:00
05. Willkommen, Siegfried! Sag, du Kühner, hast du das… 06:37
06. Neides Zoll zahlt Notung 03:11
07. Heiss ward mir von der harten Last! 03:29
08. Nun sing! Ich lausche dem Gesang 04:07

Dritter Aufzug
09. Vorspiel 02:14
10. Wache, Wala! Wala! Erwach! 02:07
11. Stark ruft das Lied 02:54
12. Mein Schlaf ist Träumen 04:34
13. Wirr wird mir, seit ich erwacht 03:07
14. Weisst du, was Wotan will? 04:24
15. Dort seh' ich Siegfried nahn 03:37
16. Was lachst du mich aus? 03:56

foobar2000 1.3.7 / Dynamic Range Meter 1.1.1
log date: 2017-10-24 03:03:11

––––––––––––––––––––––––––––––––––––––––
Analyzed: Berliner Philharmoniker, Herbert von Karajan / Wagner: Siegfried (1)
Catherine Gayer, Gerhard Stolze, Jess Thomas, Zoltan Kelemen, Berliner Philharmoniker, Herbert von Karajan / Wagner: Siegfried (2)
Catherine Gayer, Jess Thomas, Berliner Philharmoniker, Herbert von Karajan / Wagner: Siegfried (3-4)
Gerhard Stolze, Jess Thomas, Zoltan Kelemen, Berliner Philharmoniker, Herbert von Karajan / Wagner: Siegfried (5)
Jess Thomas, Berliner Philharmoniker, Herbert von Karajan / Wagner: Siegfried (6-7)
Jess Thomas, Karl Ridderbusch, Berliner Philharmoniker, Herbert von Karajan / Wagner: Siegfried (8-9)
Jess Thomas, Thomas Stewart, Berliner Philharmoniker, Herbert von Karajan / Wagner: Siegfried (10-11)
Oralia Dominguez, Thomas Stewart, Berliner Philharmoniker, Herbert von Karajan / Wagner: Siegfried (12-13)
Thomas Stewart, Berliner Philharmoniker, Herbert von Karajan / Wagner: Siegfried (14-15)
Thomas Stewart, Oralia Dominguez, Berliner Philharmoniker, Herbert von Karajan / Wagner: Siegfried (16)
––––––––––––––––––––––––––––––––––––––––

DR Peak RMS Duration Track
––––––––––––––––––––––––––––––––––––––––
DR11 -0.46 dB -14.33 dB 2:14 33-Siegfried, WWV 86C / Dritter Aufzug - Vorspiel
DR14 -2.19 dB -22.00 dB 5:00 28-Siegfried, WWV 86C / Zweiter Aufzug - Wohin schleichst du eilig und schlau, schlimmer Gesell?
DR12 -16.05 dB -33.79 dB 1:48 27-Siegfried, WWV 86C / Zweiter Aufzug - Ist mir doch fast, als sprächen die Vöglein zu mir!
DR11 -0.16 dB -17.71 dB 4:07 32-Siegfried, WWV 86C / Zweiter Aufzug - Nun sing! Ich lausche dem Gesang
DR15 -1.21 dB -21.95 dB 6:37 29-Siegfried, WWV 86C / Zweiter Aufzug - Willkommen, Siegfried! Sag, du Kühner, hast du das Fürchten gelernt?
DR14 -3.45 dB -22.98 dB 3:11 30-Siegfried, WWV 86C / Zweiter Aufzug - Neides Zoll zahlt Notung
DR13 -5.88 dB -24.27 dB 3:29 31-Siegfried, WWV 86C / Zweiter Aufzug - Heiss ward mir von der harten Last!
DR12 -2.17 dB -19.05 dB 5:13 25-Siegfried, WWV 86C / Zweiter Aufzug - Siegfrieds Hornruf - Haha! Da hätte mein Lied mir was Liebes erblasen
DR16 -2.89 dB -24.90 dB 4:49 26-Siegfried, WWV 86C / Zweiter Aufzug - Wer bist du, kühner Knabe, der das Herz mir traf?
DR13 -3.93 dB -22.95 dB 3:37 39-Siegfried, WWV 86C / Dritter Aufzug - Dort seh' ich Siegfried nahn
DR13 -3.01 dB -22.47 dB 3:56 40-Siegfried, WWV 86C / Dritter Aufzug - Was lachst du mich aus?
DR12 -0.73 dB -20.36 dB 2:54 35-Siegfried, WWV 86C / Dritter Aufzug - Stark ruft das Lied
DR12 -1.71 dB -20.08 dB 3:07 37-Siegfried, WWV 86C / Dritter Aufzug - Wirr wird mir, seit ich erwacht
DR11 -1.40 dB -16.69 dB 2:07 34-Siegfried, WWV 86C / Dritter Aufzug - Wache, Wala! Wala! Erwach!
DR12 -0.19 dB -17.99 dB 4:24 38-Siegfried, WWV 86C / Dritter Aufzug - Weisst du, was Wotan will?
DR14 -1.50 dB -21.96 dB 4:34 36-Siegfried, WWV 86C / Dritter Aufzug - Mein Schlaf ist Träumen
––––––––––––––––––––––––––––––––––––––––

Number of tracks: 16
Official DR value: DR13

Samplerate: 96000 Hz
Channels: 2
Bits per sample: 24
Bitrate: 2788 kbps
Codec: FLAC
================================================================================


CD 10: Wagner: Siegfried

Richard Wagner (1813 - 1883)

Siegfried, WWV 86C

Dritter Aufzug
01. Bleibst du mir stumm, störrischer Wicht? 04:46
02. Orchesterzwischenspiel 05:54
03. Seliger Öde auf wonniger Höh! 04:00
04. Das ist kein Mann! 07:15
05. Brünnhildes Erwachen: Einleitung 02:17
06. Heil dir, Sonne! Heil dir, Licht! 04:05
07. Siegfried! Siegfried! Seliger Held! 07:07
08. Dort seh' ich Grane, mein selig Ross 06:03
09. Sangst du mir nicht, dein Wissen sei das Leuchten der… 02:27
10. Ewig war ich, ewig bin ich 04:27
11. Dich lieb' ich: o liebtest mich du! 05:45
12. Lachend muss ich dich lieben 02:24

foobar2000 1.3.7 / Dynamic Range Meter 1.1.1
log date: 2017-10-24 03:03:57

––––––––––––––––––––––––––––––––––––––––
Analyzed: Berliner Philharmoniker, Herbert von Karajan / Wagner: Siegfried (1-2)
Helga Dernesch, Berliner Philharmoniker, Herbert von Karajan / Wagner: Siegfried (3)
Helga Dernesch, Jess Thomas, Berliner Philharmoniker, Herbert von Karajan / Wagner: Siegfried (4-9)
Jess Thomas, Berliner Philharmoniker, Herbert von Karajan / Wagner: Siegfried (10-11)
Jess Thomas, Thomas Stewart, Berliner Philharmoniker, Herbert von Karajan / Wagner: Siegfried (12)
––––––––––––––––––––––––––––––––––––––––

DR Peak RMS Duration Track
––––––––––––––––––––––––––––––––––––––––
DR12 -0.90 dB -19.08 dB 5:54 42-Siegfried, WWV 86C / Dritter Aufzug - Orchesterzwischenspiel
DR11 -0.71 dB -19.00 dB 2:17 45-Siegfried, WWV 86C / Dritter Aufzug - Brünnhildes Erwachen: Einleitung
DR12 -1.06 dB -20.18 dB 4:27 50-Siegfried, WWV 86C / Dritter Aufzug - Ewig war ich, ewig bin ich
DR11 -0.94 dB -17.09 dB 4:05 46-Siegfried, WWV 86C / Dritter Aufzug - Heil dir, Sonne! Heil dir, Licht!
DR12 -1.27 dB -19.48 dB 7:07 47-Siegfried, WWV 86C / Dritter Aufzug - Siegfried! Siegfried! Seliger Held!
DR13 -1.45 dB -19.82 dB 6:03 48-Siegfried, WWV 86C / Dritter Aufzug - Dort seh' ich Grane, mein selig Ross
DR11 -0.98 dB -16.75 dB 2:27 49-Siegfried, WWV 86C / Dritter Aufzug - Sangst du mir nicht, dein Wissen sei das Leuchten der Liebe zu mir?
DR12 -0.88 dB -16.94 dB 5:45 51-Siegfried, WWV 86C / Dritter Aufzug - Dich lieb' ich: o liebtest mich du!
DR10 -1.69 dB -14.38 dB 2:24 52-Siegfried, WWV 86C / Dritter Aufzug - Lachend muss ich dich lieben
DR16 -2.66 dB -28.23 dB 4:00 43-Siegfried, WWV 86C / Dritter Aufzug - Seliger Öde auf wonniger Höh!
DR13 -0.67 dB -20.70 dB 7:15 44-Siegfried, WWV 86C / Dritter Aufzug - Das ist kein Mann!
DR12 -1.23 dB -18.49 dB 4:46 41-Siegfried, WWV 86C / Dritter Aufzug - Bleibst du mir stumm, störrischer Wicht?
––––––––––––––––––––––––––––––––––––––––

Number of tracks: 12
Official DR value: DR12

Samplerate: 96000 Hz
Channels: 2
Bits per sample: 24
Bitrate: 2845 kbps
Codec: FLAC
================================================================================


CD 11: Wagner: Götterdämmerung

Richard Wagner (1813 - 1883)

Götterdämmerung, WWV 86D

Prologue
01. Einleitung zum Vorspiel 02:10
02. Welch Licht leuchtet dort? 17:19
03. Orchesterzwischenspiel 03:27
04. Zu neuen Taten, teurer Helde, wie liebt' ich dich, liess… 02:32
05. Mehr gabst du, Wunderfrau, als ich zu wahren weiss 09:54
06. Orchesterzwischenspiel (Siegfrieds Rheinfahrt) 05:06

Erster Aufzug
07. Nun hör, Hagen, sage mir, Held 06:05
08. Was weckst du Zweifel und Zwist! 04:34
09. Vom Rhein her tönt das Horn 02:29
10. Heil! Siegfried, teurer Held! 03:03
11. Begrüsse froh, o Held, die Halle meines Vaters 03:56
12. Willkommen, Gast, in Gibichs Haus! 03:58

foobar2000 1.3.7 / Dynamic Range Meter 1.1.1
log date: 2017-10-24 03:05:34

––––––––––––––––––––––––––––––––––––––––
Analyzed: Berliner Philharmoniker, Herbert von Karajan / Wagner: Götterdämmerung (1-3)
Catarina Ligendza, Lili Chookasian, Christa Ludwig, Berliner Philharmoniker, Herbert von Karajan / Wagner: Götterdämmerung (4)
Gundula Janowitz, Helge Brilioth, Thomas Stewart, Berliner Philharmoniker, Herbert von Karajan / Wagner: Götterdämmerung (5)
Gundula Janowitz, Thomas Stewart, Karl Ridderbusch, Berliner Philharmoniker, Herbert von Karajan / Wagner: Götterdämmerung (6-7)
Helga Dernesch, Berliner Philharmoniker, Herbert von Karajan / Wagner: Götterdämmerung (8)
Helga Dernesch, Helge Brilioth, Berliner Philharmoniker, Herbert von Karajan / Wagner: Götterdämmerung (9)
Helge Brilioth, Thomas Stewart, Karl Ridderbusch, Berliner Philharmoniker, Herbert von Karajan / Wagner: Götterdämmerung (10-12)
––––––––––––––––––––––––––––––––––––––––

DR Peak RMS Duration Track
––––––––––––––––––––––––––––––––––––––––
DR13 -7.88 dB -27.42 dB 2:10 01-Götterdämmerung, WWV 86D / Prologue - Einleitung zum Vorspiel
DR12 -0.83 dB -20.78 dB 3:27 03-Götterdämmerung, WWV 86D / Prologue - Orchesterzwischenspiel
DR12 -2.51 dB -19.66 dB 5:06 06-Götterdämmerung, WWV 86D / Prologue - Orchesterzwischenspiel (Siegfrieds Rheinfahrt)
DR13 -4.22 dB -23.81 dB 17:19 02-Götterdämmerung, WWV 86D / Prologue - Welch Licht leuchtet dort?
DR14 -6.35 dB -26.79 dB 3:58 12-Götterdämmerung, WWV 86D / Erster Aufzug - Willkommen, Gast, in Gibichs Haus!
DR14 -4.06 dB -24.04 dB 6:05 07-Götterdämmerung, WWV 86D / Erster Aufzug - Nun hör, Hagen, sage mir, Held
DR14 -3.66 dB -24.56 dB 4:34 08-Götterdämmerung, WWV 86D / Erster Aufzug - Was weckst du Zweifel und Zwist!
DR11 -5.04 dB -23.19 dB 2:32 04-Götterdämmerung, WWV 86D / Prologue - Zu neuen Taten, teurer Helde, wie liebt' ich dich, liess ich dich nicht?
DR12 -2.08 dB -18.80 dB 9:54 05-Götterdämmerung, WWV 86D / Prologue - Mehr gabst du, Wunderfrau, als ich zu wahren weiss
DR12 -2.91 dB -19.96 dB 2:29 09-Götterdämmerung, WWV 86D / Erster Aufzug - Vom Rhein her tönt das Horn
DR12 -1.77 dB -20.97 dB 3:03 10-Götterdämmerung, WWV 86D / Erster Aufzug - Heil! Siegfried, teurer Held!
DR14 -5.37 dB -25.76 dB 3:56 11-Götterdämmerung, WWV 86D / Erster Aufzug - Begrüsse froh, o Held, die Halle meines Vaters
––––––––––––––––––––––––––––––––––––––––

Number of tracks: 12
Official DR value: DR13

Samplerate: 96000 Hz
Channels: 2
Bits per sample: 24
Bitrate: 2689 kbps
Codec: FLAC
================================================================================


CD 12: Wagner: Götterdämmerung

Richard Wagner (1813 - 1883)

Götterdämmerung, WWV 86D

Erster Aufzug
01. Hast du, Gunther, ein Weib? 03:39
02. Blut-Brrüderschaft schwöre ein Eid! 07:02
03. Hier sitz' ich zur Wacht, wahre den Hof 04:49
04. Orchesterzwischenspiel 06:02
05. Altgewohntes Geräusch raunt meinem Ohr die Ferne 08:16
06. Seit er von dir geschieden, zur Schlacht nicht mehr… 09:38
07. Da sann ich nach: von seiner Seite durch stumme Reihen… 08:03
08. Blitzend Gewölk, vom Wind getragen, stürme dahin 09:41
09. Jetzt bist du mein, Brünnhilde, Gunthers Braut 03:15

foobar2000 1.3.7 / Dynamic Range Meter 1.1.1
log date: 2017-10-24 03:06:20

––––––––––––––––––––––––––––––––––––––––
Analyzed: Berliner Philharmoniker, Herbert von Karajan / Wagner: Götterdämmerung (1)
Christa Ludwig, Berliner Philharmoniker, Herbert von Karajan / Wagner: Götterdämmerung (2)
Gundula Janowitz, Helge Brilioth, Thomas Stewart, Karl Ridderbusch, Berliner Philharmoniker, Herbert von Karajan / Wagner: Götterdämmerung (3)
Helga Dernesch, Christa Ludwig, Berliner Philharmoniker, Herbert von Karajan / Wagner: Götterdämmerung (4-5)
Helga Dernesch, Helge Brilioth, Berliner Philharmoniker, Herbert von Karajan / Wagner: Götterdämmerung (6-7)
Helge Brilioth, Thomas Stewart, Berliner Philharmoniker, Herbert von Karajan / Wagner: Götterdämmerung (8)
Karl Ridderbusch, Berliner Philharmoniker, Herbert von Karajan / Wagner: Götterdämmerung (9)
––––––––––––––––––––––––––––––––––––––––

DR Peak RMS Duration Track
––––––––––––––––––––––––––––––––––––––––
DR14 -4.35 dB -26.38 dB 6:02 16-Götterdämmerung, WWV 86D / Erster Aufzug - Orchesterzwischenspiel
DR15 -4.64 dB -27.34 dB 9:38 18-Götterdämmerung, WWV 86D / Erster Aufzug - Seit er von dir geschieden, zur Schlacht nicht mehr schickte uns Wotan
DR13 -2.60 dB -21.07 dB 7:02 14-Götterdämmerung, WWV 86D / Erster Aufzug - Blut-Brüderschaft schwöre ein Eid!
DR13 -1.83 dB -21.86 dB 8:16 17-Götterdämmerung, WWV 86D / Erster Aufzug - Altgewohntes Geräusch raunt meinem Ohr die Ferne
DR13 -2.01 dB -20.73 dB 8:03 19-Götterdämmerung, WWV 86D / Erster Aufzug - Da sann ich nach: von seiner Seite durch stumme Reihen stahl ich mich fort
DR12 -1.28 dB -19.60 dB 9:41 20-Götterdämmerung, WWV 86D / Erster Aufzug - Blitzend Gewölk, vom Wind getragen, stürme dahin
DR13 -1.02 dB -21.05 dB 3:15 21-Götterdämmerung, WWV 86D / Erster Aufzug - Jetzt bist du mein, Brünnhilde, Gunthers Braut
DR14 -5.66 dB -26.02 dB 3:39 13-Götterdämmerung, WWV 86D / Erster Aufzug - Hast du, Gunther, ein Weib?
DR14 -2.65 dB -25.10 dB 4:49 15-Götterdämmerung, WWV 86D / Erster Aufzug - Hier sitz' ich zur Wacht, wahre den Hof
––––––––––––––––––––––––––––––––––––––––

Number of tracks: 9
Official DR value: DR14

Samplerate: 96000 Hz
Channels: 2
Bits per sample: 24
Bitrate: 2651 kbps
Codec: FLAC
================================================================================


CD 13: Wagner: Götterdämmerung

Richard Wagner (1813 - 1883)

Götterdämmerung, WWV 86D

Zweiter Aufzug
01. Orchestervorspiel 03:16
02. Schläfst du, Hagen, mein Sohn? 09:04
03. Orchesterzwischenspiel - Hoiho Hagen! Müder Mann! 07:13
04. Hoiho! Hoihohoho! Ihr Gibichsmannen, machet euch auf! 08:57
05. Heil dir, Gunther! Heil dir und deiner Braut! 01:07
06. Brünnhild', die hehrste Frau 03:31
07. Was ist ihr? Ist sie entrückt? 08:49
08. Achtest du so der eigenen Ehre? 03:21
09. Helle Wehr! Heilige Waffe! Hilf meinem ewigen Eide! 07:52
10. Welchen Unholds List liegt hier verhohlen? 08:29
11. Dir hilft kein Hirn, dir hilft keine Hand 04:04
12. Muss sein Tod sie betrüben, verhehlt sei ihr die Tat 02:52

Dritter Aufzug

13. Orchestervorspiel 03:01
14. Frau Sonne sendet lichte Strahlen 03:12
15. Ich höre sein Horn 04:11

foobar2000 1.3.7 / Dynamic Range Meter 1.1.1
log date: 2017-10-24 03:07:14

––––––––––––––––––––––––––––––––––––––––
Analyzed: Berliner Philharmoniker, Herbert von Karajan, Chor der Deutschen Oper Berlin / Wagner: Götterdämmerung (1)
Berliner Philharmoniker, Herbert von Karajan / Wagner: Götterdämmerung (2-3)
Gundula Janowitz, Helge Brilioth, Karl Ridderbusch, Berliner Philharmoniker, Herbert von Karajan / Wagner: Götterdämmerung (4)
Helga Dernesch, Gundula Janowitz, Helge Brilioth, Thomas Stewart, Karl Ridderbusch, Berliner Philharmoniker, Herbert von Karajan, Chor der Deutschen Oper Berlin / Wagner: Götterdämmerung (5-6)
Helga Dernesch, Helge Brilioth, Berliner Philharmoniker, Herbert von Karajan, Chor der Deutschen Oper Berlin / Wagner: Götterdämmerung (7)
Helga Dernesch, Karl Ridderbusch, Thomas Stewart, Berliner Philharmoniker, Herbert von Karajan / Wagner: Götterdämmerung (8)
Helga Dernesch, Thomas Stewart, Karl Ridderbusch, Berliner Philharmoniker, Herbert von Karajan / Wagner: Götterdämmerung (9-10)
Karl Ridderbusch, Berliner Philharmoniker, Herbert von Karajan, Chor der Deutschen Oper Berlin / Wagner: Götterdämmerung (11)
Liselotte Rebmann, Edda Moser, Anna Reynolds, Berliner Philharmoniker, Herbert von Karajan / Wagner: Götterdämmerung (12)
Liselotte Rebmann, Edda Moser, Anna Reynolds, Helge Brilioth, Berliner Philharmoniker, Herbert von Karajan / Wagner: Götterdämmerung (13)
Thomas Stewart, Berliner Philharmoniker, Herbert von Karajan, Chor der Deutschen Oper Berlin / Wagner: Götterdämmerung (14)
Zoltan Kelemen, Karl Ridderbusch, Berliner Philharmoniker, Herbert von Karajan / Wagner: Götterdämmerung (15)
––––––––––––––––––––––––––––––––––––––––

DR Peak RMS Duration Track
––––––––––––––––––––––––––––––––––––––––
DR11 -2.03 dB -19.08 dB 1:07 26-Götterdämmerung, WWV 86D / Zweiter Aufzug - Heil dir, Gunther! Heil dir und deiner Braut!
DR13 -2.46 dB -21.70 dB 3:16 22-Götterdämmerung, WWV 86D / Zweiter Aufzug - Orchestervorspiel
DR14 -7.51 dB -28.37 dB 3:01 34-Götterdämmerung, WWV 86D / Dritter Aufzug - Orchestervorspiel
DR14 -1.94 dB -22.69 dB 7:13 24-Götterdämmerung, WWV 86D / Zweiter Aufzug - Orchesterzwischenspiel - Hoiho Hagen! Müder Mann!
DR12 -2.26 dB -19.49 dB 8:49 28-Götterdämmerung, WWV 86D / Zweiter Aufzug - Was ist ihr? Ist sie entrückt?
DR12 -3.17 dB -19.58 dB 3:21 29-Götterdämmerung, WWV 86D / Zweiter Aufzug - Achtest du so der eigenen Ehre?
DR13 -2.24 dB -21.08 dB 7:52 30-Götterdämmerung, WWV 86D / Zweiter Aufzug - Helle Wehr! Heilige Waffe! Hilf meinem ewigen Eide!
DR13 -2.16 dB -21.61 dB 8:29 31-Götterdämmerung, WWV 86D / Zweiter Aufzug - Welchen Unholds List liegt hier verhohlen?
DR13 -1.52 dB -19.75 dB 4:04 32-Götterdämmerung, WWV 86D / Zweiter Aufzug - Dir hilft kein Hirn, dir hilft keine Hand
DR12 -0.84 dB -16.14 dB 2:52 33-Götterdämmerung, WWV 86D / Zweiter Aufzug - Muss sein Tod sie betrüben, verhehlt sei ihr die Tat
DR11 -1.50 dB -15.97 dB 8:57 25-Götterdämmerung, WWV 86D / Zweiter Aufzug - Hoiho! Hoihohoho! Ihr Gibichsmannen, machet euch auf!
DR12 -3.63 dB -21.81 dB 3:12 35-Götterdämmerung, WWV 86D / Dritter Aufzug - Frau Sonne sendet lichte Strahlen
DR14 -3.53 dB -23.38 dB 4:11 36-Götterdämmerung, WWV 86D / Dritter Aufzug - Ich höre sein Horn
DR12 -0.70 dB -21.23 dB 3:31 27-Götterdämmerung, WWV 86D / Zweiter Aufzug - Brünnhild', die hehrste Frau
DR16 -2.65 dB -25.25 dB 9:04 23-Götterdämmerung, WWV 86D / Zweiter Aufzug - Schläfst du, Hagen, mein Sohn?
––––––––––––––––––––––––––––––––––––––––

Number of tracks: 15
Official DR value: DR13

Samplerate: 96000 Hz
Channels: 2
Bits per sample: 24
Bitrate: 2646 kbps
Codec: FLAC
================================================================================


CD 14: Wagner: Götterdämmerung

Richard Wagner (1813 - 1883)

Götterdämmerung, WWV 86D

Dritter Aufzug
01. Was leid' ich doch das karge Lob? 09:39
02. Hoiho! Finden wir endlich, wohin du flogest? 06:28
03. Mime hiess ein mürrischer Zwerg 08:07
04. Was hör' ich! 02:14
05. Brünnhilde, heilige Braut! 04:08
06. Orchesterzwischenspiel - Trauermarsch 08:30
07. War das sein Horn? 07:48
08. Schweigt eures Jammers jauchzenden Schwall 03:38
09. Starke Scheite schichtet mir dort 09:44
10. Mein Erbe nun nehm' ich zu eigen 02:49
11. Fliegt heim, ihr Raben! 03:53
12. Zurück vom Ring! 04:53

foobar2000 1.3.7 / Dynamic Range Meter 1.1.1
log date: 2017-10-24 03:08:04

––––––––––––––––––––––––––––––––––––––––
Analyzed: Berliner Philharmoniker, Herbert von Karajan / Wagner: Götterdämmerung (1)
Gundula Janowitz, Karl Ridderbusch, Thomas Stewart, Berliner Philharmoniker, Herbert von Karajan / Wagner: Götterdämmerung (2)
Helga Dernesch, Berliner Philharmoniker, Herbert von Karajan / Wagner: Götterdämmerung (3-5)
Helga Dernesch, Gundula Janowitz, Berliner Philharmoniker, Herbert von Karajan / Wagner: Götterdämmerung (6)
Helge Brilioth, Berliner Philharmoniker, Herbert von Karajan / Wagner: Götterdämmerung (7)
Helge Brilioth, Karl Ridderbusch, Berliner Philharmoniker, Herbert von Karajan, Chor der Deutschen Oper Berlin / Wagner: Götterdämmerung (8)
Helge Brilioth, Thomas Stewart, Karl Ridderbusch, Berliner Philharmoniker, Herbert von Karajan, Chor der Deutschen Oper Berlin / Wagner: Götterdämmerung (9)
Karl Ridderbusch, Berliner Philharmoniker, Herbert von Karajan / Wagner: Götterdämmerung (10)
Liselotte Rebmann, Edda Moser, Anna Reynolds, Helge Brilioth, Berliner Philharmoniker, Herbert von Karajan / Wagner: Götterdämmerung (11)
Thomas Stewart, Karl Ridderbusch, Berliner Philharmoniker, Herbert von Karajan, Chor der Deutschen Oper Berlin / Wagner: Götterdämmerung (12)
––––––––––––––––––––––––––––––––––––––––

DR Peak RMS Duration Track
––––––––––––––––––––––––––––––––––––––––
DR13 -1.07 dB -20.72 dB 8:30 42-Götterdämmerung, WWV 86D / Dritter Aufzug - Orchesterzwischenspiel - Trauermarsch
DR14 -1.50 dB -21.24 dB 7:48 43-Götterdämmerung, WWV 86D / Dritter Aufzug - War das sein Horn?
DR14 -2.00 dB -22.13 dB 9:44 45-Götterdämmerung, WWV 86D / Dritter Aufzug - Starke Scheite schichtet mir dort
DR14 -7.58 dB -27.96 dB 2:49 46-Götterdämmerung, WWV 86D / Dritter Aufzug - Mein Erbe nun nehm' ich zu eigen
DR12 -0.92 dB -17.23 dB 3:53 47-Götterdämmerung, WWV 86D / Dritter Aufzug - Fliegt heim, ihr Raben!
DR13 -3.47 dB -22.92 dB 3:38 44-Götterdämmerung, WWV 86D / Dritter Aufzug - Schweigt eures Jammers jauchzenden Schwall
DR15 -5.21 dB -26.87 dB 4:08 41-Götterdämmerung, WWV 86D / Dritter Aufzug - Brünnhilde, heilige Braut!
DR15 -4.98 dB -26.08 dB 8:07 39-Götterdämmerung, WWV 86D / Dritter Aufzug - Mime hiess ein mürrischer Zwerg
DR13 -2.83 dB -21.91 dB 6:28 38-Götterdämmerung, WWV 86D / Dritter Aufzug - Hoiho! Finden wir endlich, wohin du flogest?
DR11 -0.95 dB -16.93 dB 4:53 48-Götterdämmerung, WWV 86D / Dritter Aufzug - Zurück vom Ring!
DR13 -2.25 dB -21.09 dB 9:39 37-Götterdämmerung, WWV 86D / Dritter Aufzug - Was leid' ich doch das karge Lob?
DR11 -0.83 dB -19.56 dB 2:14 40-Götterdämmerung, WWV 86D / Dritter Aufzug - Was hör' ich!
––––––––––––––––––––––––––––––––––––––––

Number of tracks: 12
Official DR value: DR13

Samplerate: 96000 Hz
Channels: 2
Bits per sample: 24
Bitrate: 2680 kbps
Codec: FLAC
================================================================================


CD 1-3 Das Rheingold:

Zoltán Kélémen (Alberich)
Robert Kerns (Donner)
Oralia Dominguez (Erda)
Karl Ridderbusch (Fafner)
Martti Talvela (Fasolt)
Anna Reynolds (Flosshilde)
Simone Mangelsdorff (Freia)
Josephine Veasey (Fricka)
Donald Grobe (Froh)
Gerhard Stolze (Loge)
Erwin Wohlfahrt (Mime)
Edda Moser (Wellgunde)
Lieselotte Rebmann (Woglinde)
Dietrich Fischer-Dieskau (Wotan)

CD 4-6 Die Walküre:

Régine Crespin (Brünnhilde)
Christa Ludwig (Fricka)
Lieselotte Rebmann (Gerhilde)
Cvetka Ahlin (Grimgerde)
Gerda Scheyrer (Helmwige)
Martti Talvela (Hunding)
Carlotta Ordassy (Ortlinde)
Helga Jenckel (Rossweisse)
Lilo Brockhaus (Schwertleite)
Gundula Janowitz (Sieglinde)
Jon Vickers (Siegmund)
Barbro Ericson (Siegrune)
Ingrid Steger (Waltraute)
Thomas Stewart (Wotan)

CD 7-10 Siegfried:

Jess Thomas (Siegfried)
Gerhard Stolze (Mime)
Helga Dernesch (Brünnhilde)
Thomas Stewart (Wanderer)
Zoltán Kelemen (Alberich)
Karl Ridderbusch (Fafner)
Oralia Dominguez (Erda)
Catherine Gayer (Waldvogel)

CD 11-14 Götterdämmerung:

Helga Dernesch (Brünnhilde)
Helge Brilioth (Siegfried)
Karl Ridderbusch (Hagen)
Gundula Janowitz (Gutrune)
Christa Ludwig (Waltraute/Zweite Norn)
Catarina Ligendza (Dritte Norn)
Thomas Stewart (Gunther)
Lili Chookasian (Erste Norn)
Zoltán Kéléman (Alberich)
Liselotte Rebmann (Woglinde)
Edda Moser (Wellgunde)
Anna Reynolds (Flosshilde)
Chor der Deutschen Oper Berlin

Berliner Philharmoniker
Herbert von Karajan, conductor


All thanks go to the original releaser