Arcangelo, Jonathan Cohen - Blow: An Ode on the Death of Mr Henry Purcell (2017) [Official Digital Download 24/96]

Posted By: SERTiL
Arcangelo, Jonathan Cohen - Blow: An Ode on the Death of Mr Henry Purcell (2017) [Official Digital Download 24/96]

Arcangelo, Jonathan Cohen - Blow: An Ode on the Death of Mr Henry Purcell (2017)
FLAC (tracks) 24-bit/96 kHz | Time - 76:22 minutes | 1.42 GB
Studio Master, Official Digital Download | Artwork: Digital booklet

An album of music for the connoisseur—of extraordinary singing as much as of the English Baroque. This wonderful recital ranges widely across Blow’s vocal and instrumental music, Arcangelo again demonstrating their versatility in repertoire which will be a real discovery for many.

TRACKLIST

John Blow (1649-1708)

Begin The Song!
1. Overture
2. Begin the Song!
3. Bring Gentlest Thoughts
4. Hark How the Waken'd Strings
5. By Harmony's Entrancing Power
6. How Dull Were Life
7. Without the Sweets of Melody
8. Music's the Cordial
9. Come Then, With Tuneful Breath

10. Chaconne in G Major

An Ode On The Death Of Mr Henry Purcell
11. Mark How the Lark and Linnet Sing
12. But in the Close of Night
13. So Ceas'd the Rival Crew
14. We Beg Not Hell
15. The Power of Harmony
16. The Heavenly Choir
17. Ye Brethren of the Lyre

18. Ground in G Minor

The Nymphs Of The Wells
19. The Nymphs
20. But Here Comes a Druid
21. Blest Be This Morn
22. We Nymhps

Sonata In A
23. Slow
24. (Untitled)
25. Brisk

Dread Sir, The Prince Of Light
26. Symphony
27. Dread Sir
28. Let No Disloyal Cares
29. This Message We Bring

PERSONNEL
Arcangelo
Jonathan Cohen (conductor)
Thomas Walker (tenor)
Samuel Boden (tenor)

foobar2000 1.3.7 / Dynamic Range Meter 1.1.1
log date: 2017-10-03 18:26:13

––––––––––––––––––––––––––––––––––––––––
Analyzed: Callum Thorpe; Jonathan Cohen: Arcangelo / Blow: An Ode on the Death of Mr Henry Purcell & other works (1)
Emma Walshe, Zoë Brookshaw; Jonathan Cohen: Arcangelo / Blow: An Ode on the Death of Mr Henry Purcell & other works (2)
Jonathan Cohen: Arcangelo / Blow: An Ode on the Death of Mr Henry Purcell & other works (3-11)
Samuel Boden, Thomas Walker; Jonathan Cohen: Arcangelo / Blow: An Ode on the Death of Mr Henry Purcell & other works (12-17)
Samuel Boden; Jonathan Cohen: Arcangelo / Blow: An Ode on the Death of Mr Henry Purcell & other works (18-19)
Thomas Walker; Jonathan Cohen: Arcangelo / Blow: An Ode on the Death of Mr Henry Purcell & other works (20-25)
William Gaunt, Samuel Boden, Thomas Walker; Jonathan Cohen: Arcangelo / Blow: An Ode on the Death of Mr Henry Purcell & other works (26-27)
William Gaunt, Samuel Boden; Jonathan Cohen: Arcangelo / Blow: An Ode on the Death of Mr Henry Purcell & other works (28)
William Gaunt, Zoë Brookshaw; Jonathan Cohen: Arcangelo / Blow: An Ode on the Death of Mr Henry Purcell & other works (29)
––––––––––––––––––––––––––––––––––––––––

DR Peak RMS Duration Track
––––––––––––––––––––––––––––––––––––––––
DR13 -1.10 dB -18.98 dB 3:38 08-Blow: Begin the Song! - 8: Music's the cordial of a troubled breast
DR14 -1.07 dB -21.04 dB 2:10 20-Blow: The Nymphs of the wells - 2: But here comes a Druid and we must retire –
DR11 -5.44 dB -21.50 dB 1:55 01-Blow: Begin the Song! - 1: Overture
DR12 -2.58 dB -18.81 dB 1:18 09-Blow: Begin the Song! - 9: Come then, with tuneful breath and string
DR13 -5.56 dB -22.01 dB 5:09 10-Blow: Chaconne a 4 in G major
DR12 -6.47 dB -21.04 dB 4:14 18-Blow: Ground in G minor
DR12 -0.20 dB -16.81 dB 1:20 22-Blow: The Nymphs of the wells - 4: We Nymphs of the founts and we of the mounts
DR10 -8.78 dB -20.62 dB 2:26 23-Blow: Sonata in A major - 1: Slow –
DR11 -7.42 dB -20.40 dB 1:12 24-Blow: Sonata in A major - 2: [untitled] –
DR11 -7.17 dB -21.04 dB 2:06 25-Blow: Sonata in A major - 3: Brisk
DR12 -6.54 dB -21.63 dB 1:53 26-Blow: Dread Sir, the Prince of Light - 1: [Symphony] –
DR12 -8.60 dB -23.75 dB 3:06 04-Blow: Begin the Song! - 4: Hark how the waken'd strings resound
DR13 -4.30 dB -20.00 dB 3:38 11-Blow: An Ode on the Death of Mr Henry Purcell - 1: Mark how the lark and linnet sing –
DR12 -4.36 dB -21.14 dB 3:55 12-Blow: An Ode on the Death of Mr Henry Purcell - 2: But in the close of night –
DR13 -4.73 dB -20.75 dB 3:03 16-Blow: An Ode on the Death of Mr Henry Purcell - 6: The heavenly choir, who heard his notes from high –
DR13 -2.19 dB -18.26 dB 2:02 17-Blow: An Ode on the Death of Mr Henry Purcell - 7: Ye brethren of the lyre, and tuneful voice
DR13 -4.25 dB -21.10 dB 2:47 19-Blow: The Nymphs of the wells - 1: The Nymphs of the wells, and the Nymphs of the hills
DR13 -5.25 dB -20.29 dB 2:34 02-Blow: Begin the Song! - 2: Begin the Song! your instruments advance –
DR13 -2.08 dB -19.93 dB 2:35 15-Blow: An Ode on the Death of Mr Henry Purcell - 5: The power of harmony too well they know
DR12 -3.01 dB -18.99 dB 2:57 03-Blow: Begin the Song! - 3: Bring gentlest thoughts, that into language glide
DR12 -2.01 dB -17.72 dB 2:32 05-Blow: Begin the Song! - 5: By harmony's entrancing power
DR13 -5.85 dB -23.05 dB 2:32 07-Blow: Begin the Song! - 7: Without the sweets of melody
DR13 -4.02 dB -21.46 dB 2:44 13-Blow: An Ode on the Death of Mr Henry Purcell - 3: So ceas'd the rival crew when Purcell came –
DR13 -2.05 dB -18.42 dB 1:55 14-Blow: An Ode on the Death of Mr Henry Purcell - 4: We beg not hell our Orpheus to restore –
DR13 -1.75 dB -19.20 dB 2:09 28-Blow: Dread Sir, the Prince of Light - 3: Let no disloyal cares his peace destroy –
DR13 -4.40 dB -20.43 dB 1:23 27-Blow: Dread Sir, the Prince of Light - 2: Dread Sir, the Prince of Light begins to rise –
DR13 -1.48 dB -19.62 dB 3:29 29-Blow: Dread Sir, the Prince of Light - 4: This message we bring
DR14 -2.71 dB -19.97 dB 4:13 21-Blow: The Nymphs of the wells - 3: Blest be this morn, blest be the hand –
DR13 -3.77 dB -20.66 dB 1:42 06-Blow: Begin the Song! - 6: How dull were life, how hardly worth our care –
––––––––––––––––––––––––––––––––––––––––

Number of tracks: 29
Official DR value: DR12

Samplerate: 96000 Hz
Channels: 2
Bits per sample: 24
Bitrate: 2586 kbps
Codec: FLAC
================================================================================


Thanks to the Original customer.