Bob Dylan - The Real Royal Albert Hall 1966 Concert (2016) [TR24][OF]

Posted By: SERTiL
Bob Dylan - The Real Royal Albert Hall 1966 Concert (2016) [TR24][OF]

Bob Dylan - The Real Royal Albert Hall 1966 Concert
Folk Rock | FLAC (tracks) 24-bit/96 kHz | 94:11 min | 1.97 GB | Front Cover
Label: Columbia, Legacy | Tracks: 15 | Rls.date: 2016

For decades, Bob Dylan's performance in Manchester was incorrectly labeled, The Royal Albert Hall Concert. Now, for the first time, the REAL Royal Albert Hall concert, originally recorded for a live album by CBS Records, is finally being released as a standalone 2-CD set, titled The Real Royal Albert Hall 1966 Concert. This show is also included in the 1966 Live Recordings box set.

Dylan is accompanied on these recordings by Robbie Robertson (guitar), Rick Danko (bass, backing vocals), Richard Manuel (piano), Garth Hudson (organ) and Mickey Jones (drums).

TRACKLIST

CD1
01. She Belongs to Me
02. Fourth Time Around
03. Visions of Johanna
04. It’s All Over Now, Baby Blue
05. Desolation Row
06. Just Like a Woman
07. Mr. Tambourine Man

CD2
01. Tell Me, Momma
02. I Don’t Believe You (She Acts Like We Never Have Met)
03. Baby, Let Me Follow You Down
04. Just Like Tom Thumb’s Blues
05. Leopard-Skin Pill-Box Hat
06. One Too Many Mornings
07. Ballad of a Thin Man
08. Like a Rolling Stone

foobar2000 1.3.7 / Замер динамического диапазона (DR) 1.1.1
Дата отчёта: 2016-12-23 18:09:08

––––––––––––––––––––––––––––––––––––––––
Анализ: Bob Dylan / The Real Royal Albert Hall 1966 Concert
––––––––––––––––––––––––––––––––––––––––

DR Пики RMS Продолжительность трека
––––––––––––––––––––––––––––––––––––––––
DR13 -0.10 дБ -17.31 дБ 3:51 01-She Belongs to Me
DR13 -0.39 дБ -15.94 дБ 4:32 02-Fourth Time Around
DR13 -0.10 дБ -15.37 дБ 7:57 03-Visions of Johanna
DR14 -0.10 дБ -17.28 дБ 5:53 04-It's All Over Now, Baby Blue
DR13 -0.15 дБ -16.16 дБ 12:05 05-Desolation Row
DR12 -0.10 дБ -16.66 дБ 5:26 06-Just Like a Woman
DR14 -0.10 дБ -16.76 дБ 9:16 07-Mr. Tambourine Man
DR11 -0.19 дБ -12.33 дБ 4:52 08-Tell Me, Momma
DR10 -0.10 дБ -11.82 дБ 6:27 09-I Don't Believe You (She Acts Like We Never Have Met)
DR11 -0.19 дБ -12.55 дБ 3:43 10-Baby, Let Me Follow You Down
DR11 -0.19 дБ -12.63 дБ 6:15 11-Just Like Tom Thumb's Blues
DR11 -0.19 дБ -12.83 дБ 4:05 12-Leopard-Skin Pill-Box Hat
DR12 -0.19 дБ -13.96 дБ 4:08 13-One Too Many Mornings
DR11 -0.10 дБ -12.88 дБ 7:23 14-Ballad of a Thin Man
DR10 -0.19 дБ -11.53 дБ 8:25 15-Like a Rolling Stone
––––––––––––––––––––––––––––––––––––––––

Количество треков: 15
Реальные значения DR: DR12

Частота: 96000 Гц
Каналов: 2
Разрядность: 24
Битрейт: 3014 кбит/с
Кодек: FLAC
================================================================================


Thanks to the Original customer.