Bob Dylan - The Rolling Thunder Revue: The 1975 Live Recordings (2019) [Official Digital Download 24/96]

Posted By: pyatak
Bob Dylan - The Rolling Thunder Revue: The 1975 Live Recordings (2019) [Official Digital Download 24/96]

Bob Dylan - The Rolling Thunder Revue: The 1975 Live Recordings (2019) [Official Digital Download 24/96]
FLAC (tracks) 24-bit/96 kHz | Front Cover | Time - 10:32:17 minutes | 10.86 GB
Folk Rock | Label: Columbia, Official Digital Download

"A comprehensive anthology of music from the mythic first leg of Bob Dylan's groundbreaking Rolling Thunder Revue, this 14CD box set includes all five of Dylan’s full sets from that tour that were professionally recorded. The collection also provides the listener with an intimate insider's seat for recently unearthed rehearsals at New York's S.I.R. studios and the Seacrest Mote in Falmouth, MA plus a bonus disc showcasing one-of-a-kind performances from the tour. Bob Dylan – The Rolling Thunder Revue: The 1975 Live Recordings serves as a companion piece to the new film, ""Rolling Thunder Revue – A Bob Dylan Story by Martin Scorsese,"" premiering on Netflix on June 12. Every one of Bob Dylan's performances in the movie can be found in this boxed set. • 14-disc set • over 100 previously unreleased tracks • five complete shows, newly mixed • three discs of rehearsals • bonus disc of rarities "

TRACKLIST

DISC 1
October 19, 1975 – S.I.R. Rehearsals, New York, NY
1. Rake and Ramblin’ Boy* [incomplete]
2. Romance in Durango* [incomplete]
3. Rita May*
4. I Want You# [incomplete]
5. Love Minus Zero/No Limit* [incomplete]
6. She Belongs to Me* [incomplete]
7. Joey [incomplete]
8. Isis
9. Hollywood Angel [incomplete]
10. People Get Ready#~
11. What Will You Do When Jesus Comes?#
12. Spanish Is the Loving Tongue
13. The Ballad of Ira Hayes
14. One More Cup of Coffee (Valley Below)*
15. Tonight I’ll Be Staying Here with You
16. This Land Is Your Land
17. Dark as a Dungeon*

DISC 2
October 21, 1975 – S.I.R. Rehearsals, New York, NY
1. She Belongs to Me#
2. A Hard Rain’s a-Gonna Fall
3. Isis
4. This Wheel’s on Fire/Hurricane/All Along the Watchtower
5. One More Cup of Coffee (Valley Below)
6. If You See Her, Say Hello
7. One Too Many Mornings#
8. Gwenevere [incomplete]
9. Lily, Rosemary and the Jack of Hearts [incomplete]
10. Patty’s Gone to Laredo#
11. It’s Alright, Ma (I’m Only Bleeding)

DISC 3
October 29, 1975 – Seacrest Motel Rehearsals, Falmouth, MA
1. Tears of Rage
2. I Shall Be Released
3. Easy and Slow
4. Ballad of a Thin Man
5. Hurricane
6. One More Cup of Coffee (Valley Below)
7. Just Like a Woman
8. Knockin’ on Heaven’s Door

DISC 4
November 19, 1975 – Memorial Auditorium, Worcester, MA
1. When I Paint My Masterpiece
2. It Ain’t Me, Babe
3. The Lonesome Death of Hattie Carroll
4. It Takes a Lot to Laugh, It Takes a Train to Cry
5. Romance in Durango
6. Isis
7. Blowin’ in the Wind
8. Wild Mountain Thyme
9. Mama, You Been on My Mind
10. Dark as a Dungeon
11. I Shall Be Released

DISC 5
November 19, 1975 – Memorial Auditorium, Worcester, MA
1. Tangled Up in Blue
2. Oh, Sister
3. Hurricane^*
4. One More Cup of Coffee (Valley Below)
5. Sara
6. Just Like a Woman
7. Knockin’ on Heaven’s Door
8. This Land Is Your Land

DISC 6
November 20, 1975 – Harvard Square Theater, Cambridge, MA
1. When I Paint My Masterpiece
2. It Ain’t Me, Babe#~^
3. The Lonesome Death of Hattie Carroll
4. It Takes a Lot to Laugh, It Takes a Train to Cry*
5. Romance in Durango^*
6. Isis
7. Blowin’ in the Wind*
8. Wild Mountain Thyme
9. Mama, You Been on My Mind^
10. Dark as a Dungeon
11. I Shall Be Released

DISC 7
November 20, 1975 – Harvard Square Theater, Cambridge, MA
1. Simple Twist of Fate^*
2. Oh, Sister
3. Hurricane
4. One More Cup of Coffee (Valley Below)
5. Sara
6. Just Like a Woman#
7. Knockin’ on Heaven’s Door#^
8. This Land Is Your Land

DISC 8
November 21, 1975 – Afternoon – Boston Music Hall, Boston, MA
1. When I Paint My Masterpiece
2. It Ain’t Me, Babe
3. The Lonesome Death of Hattie Carroll
4. A Hard Rain’s a-Gonna Fall
5. Romance in Durango
6. Isis
7. The Times They Are a-Changin’
8. I Dreamed I Saw St. Augustine
9. Mama, You Been on My Mind
10. Never Let Me Go
11. I Shall Be Released^

DISC 9
November 21, 1975 – Afternoon – Boston Music Hall, Boston, MA
1. Mr. Tambourine Man^
2. Oh, Sister
3. Hurricane
4. One More Cup of Coffee (Valley Below)
5. Sara^
6. Just Like a Woman
7. Knockin’ on Heaven’s Door
8. This Land Is Your Land

DISC 10
November 21, 1975 – Evening – Boston Music Hall, Boston, MA
1. When I Paint My Masterpiece
2. It Ain’t Me, Babe
3. The Lonesome Death of Hattie Carroll^
4. It Takes a Lot to Laugh, It Takes a Train to Cry#^
5. Romance in Durango
6. Isis^
7. Blowin’ in the Wind^
8. The Water Is Wide^
9. Mama, You Been on My Mind
10. Dark as a Dungeon
11. I Shall Be Released

DISC 11
November 21, 1975 – Evening – Boston Music Hall, Boston, MA
1. I Don’t Believe You (She Acts Like We Never Have Met)
2. Tangled Up in Blue#^
3. Oh, Sister^
4. Hurricane
5. One More Cup of Coffee (Valley Below)^
6. Sara
7. Just Like a Woman^
8. Knockin’ on Heaven’s Door
9. This Land Is Your Land

DISC 12
December 4, 1975 – Forum de Montreal, Montreal, Canada
1. When I Paint My Masterpiece
2. It Ain’t Me, Babe
3. The Lonesome Death of Hattie Carroll*
4. Tonight I’ll Be Staying Here with You^
5. A Hard Rain’s a-Gonna Fall#^*
6. Romance in Durango#
7. Isis#~
8. Blowin’ in the Wind
9. Dark as a Dungeon
10. Mama, You Been on My Mind
11. Never Let Me Go#~
12. I Dreamed I Saw St. Augustine*
13. I Shall Be Released

DISC 13
December 4, 1975 – Forum de Montreal, Montreal, Canada
1. It’s All Over Now, Baby Blue^
2. Love Minus Zero/No Limit^
3. Tangled Up in Blue
4. Oh, Sister
5. Hurricane
6. One More Cup of Coffee (Valley Below)#*
7. Sara#
8. Just Like a Woman
9. Knockin’ on Heaven’s Door
10. This Land Is Your Land

DISC 14
BONUS DISC – RARE PERFORMANCES

1. One Too Many Mornings*
October 24 – Gerdes Folk City, New York City, New York
2. Simple Twist of Fate*
October 28 – Mahjong Parlor, Falmouth, MA
3. Isis
November 2 – Technical University, Lowell, MA
4. With God on Our Side
November 4 – Afternoon – Civic Center, Providence, RI
5. It’s Alright, Ma (I’m Only Bleeding)
November 4 – Evening – Civic Center, Providence, RI
6. Radio advertisement for Niagara Falls shows
Niagara Falls, NY
7. The Ballad of Ira Hayes*
November 16 – Tuscarora Reservation, NY
8. Your Cheatin’ Heart*
November 23
9. Fourth Time Around
November 26 – Civic Center, Augusta, Maine
10. The Tracks of My Tears
December 3 – Chateau Champlain, Montreal Canada
11. Jesse James
December 5 – Montreal Stables, Montreal, Canada
12. It Takes a Lot to Laugh, It Takes a Train to Cry
December 8 – “Night of the Hurricane,” Madison Square Garden, New York, NY

foobar2000 1.3.16 / Dynamic Range Meter 1.1.1
log date: 2019-06-11 22:28:37

––––––––––––––––––––––––––––––––––––––––
Analyzed: Bob Dylan / The Rolling Thunder Revue: The 1975 Live Recordings
––––––––––––––––––––––––––––––––––––––––

DR Peak RMS Duration Track
––––––––––––––––––––––––––––––––––––––––
DR11 -0.46 dB -15.89 dB 1:51 001-Rake and Ramblin' Boy (incomplete) (S.I.R. Studio Rehearsals)
DR16 -0.46 dB -19.34 dB 5:24 002-Romance in Durango (incomplete) (S.I.R. Studio Rehearsals)
DR14 -0.46 dB -16.82 dB 3:22 003-Rita May (S.I.R. Studio Rehearsals)
DR13 -3.10 dB -18.70 dB 2:19 004-I Want You (incomplete) (S.I.R. Studio Rehearsals)
DR15 -1.09 dB -18.88 dB 1:12 005-Love Minus Zero / No Limit (incomplete) (S.I.R. Studio Rehearsals)
DR13 -2.18 dB -18.61 dB 2:41 006-She Belongs to Me (incomplete) (S.I.R. Studio Rehearsals)
DR13 -0.46 dB -16.73 dB 5:14 007-Joey (incomplete) (S.I.R. Studio Rehearsals)
DR15 -0.46 dB -18.04 dB 7:46 008-Isis (S.I.R. Studio Rehearsals, Oct. 19, 1975)
DR13 -0.46 dB -16.73 dB 2:51 009-Hollywood Angel (incomplete) (S.I.R. Studio Rehearsals)
DR15 -0.46 dB -19.75 dB 2:43 010-People Get Ready (S.I.R. Studio Rehearsals)
DR16 -0.46 dB -19.09 dB 1:37 011-What Will You Do When Jesus Comes? (S.I.R. Studio Rehearsals)
DR14 -0.46 dB -19.31 dB 4:05 012-Spanish Is the Loving Tongue (S.I.R. Studio Rehearsals)
DR15 -0.46 dB -19.48 dB 2:56 013-The Ballad of Ira Hayes (S.I.R. Studio Rehearsals)
DR13 -1.87 dB -19.38 dB 3:41 014-One More Cup of Coffee (Valley Below) (S.I.R. Studio Rehearsals, Oct. 19, 1975)
DR12 -0.46 dB -16.72 dB 2:59 015-Tonight I'll be Staying Here With You (S.I.R. Studio Rehearsals)
DR12 -3.04 dB -17.92 dB 2:32 016-This Land is Your Land (S.I.R. Studio Rehearsals)
DR11 -2.04 dB -17.10 dB 3:42 017-Dark as a Dungeon (S.I.R. Studio Rehearsals)
DR14 -1.18 dB -18.09 dB 2:39 018-She Belongs to Me (S.I.R. Studio Rehearsals)
DR13 -0.46 dB -17.60 dB 4:02 019-A Hard Rain's A-Gonna Fall (S.I.R. Studio Rehearsals)
DR13 -0.46 dB -15.93 dB 3:58 020-Isis (S.I.R. Studio Rehearsals, Oct. 21, 1975)
DR13 -0.57 dB -16.96 dB 13:29 021-This Wheel's on Fire / Hurricane / All Along the Watchtower (S.I.R. Studio Rehearsals)
DR13 -2.80 dB -19.72 dB 3:16 022-One More Cup of Coffee (Valley Below) (S.I.R. Studio Rehearsals, Oct. 21, 1975)
DR14 -0.73 dB -19.38 dB 2:56 023-If You See Her, Say Hello (S.I.R. Studio Rehearsals)
DR15 -2.21 dB -20.94 dB 2:32 024-One Too Many Mornings (S.I.R. Studio Rehearsals)
DR14 -0.93 dB -20.10 dB 2:20 025-Gwenevere (incomplete) (S.I.R. Studio Rehearsals)
DR13 -2.48 dB -18.53 dB 2:21 026-Lily, Rosemary and the Jack of Hearts (incomplete) (S.I.R. Studio Rehearsals)
DR16 -0.50 dB -20.79 dB 2:47 027-Patty's Gone to Laredo (S.I.R. Studio Rehearsals)
DR13 -0.75 dB -19.71 dB 0:52 028-It's Alright Ma (I'm Only Bleeding) (S.I.R. Studio Rehearsals)
DR11 -0.79 dB -16.55 dB 3:33 029-Tears of Rage (Seacrest Motel Rehearsals)
DR13 0.00 dB -16.74 dB 4:11 030-I Shall Be Released (Seacrest Motel Rehearsals)
DR13 -3.92 dB -22.14 dB 5:23 031-Easy and Slow (Seacrest Motel Rehearsals)
DR14 -0.98 dB -18.49 dB 5:43 032-Ballad of a Thin Man (Seacrest Motel Rehearsals)
DR14 -1.31 dB -18.16 dB 8:22 033-Hurricane (Seacrest Motel Rehearsals)
DR14 -1.92 dB -19.57 dB 4:16 034-One More Cup of Coffee (Valley Below) (Seacrest Motel Rehearsals)
DR12 -0.92 dB -16.74 dB 5:15 035-Just Like a Woman (Seacrest Motel Rehearsals)
DR15 -0.96 dB -20.37 dB 4:30 036-Knockin' on Heaven's Door (Seacrest Motel Rehearsals)
DR10 -0.66 dB -13.18 dB 4:38 037-When I Paint My Masterpiece (Live at Memorial Auditorium, Worcester, MA - November 1975)
DR10 -1.14 dB -13.41 dB 5:27 038-It Ain't Me, Babe (Live at Memorial Auditorium, Worcester, MA - November 1975)
DR10 -0.98 dB -13.77 dB 5:14 039-The Lonesome Death of Hattie Carroll (Live at Memorial Auditorium, Worcester, MA - November 1975)
DR10 -0.52 dB -12.96 dB 3:19 040-It Takes a Lot to Laugh, It Takes a Train to Cry (Live at Memorial Auditorium, Worcester, MA - November 1975)
DR12 0.00 dB -15.02 dB 5:26 041-Romance in Durango (Live at Memorial Auditorium, Worcester, MA - November 1975)
DR11 -0.16 dB -13.31 dB 5:29 042-Isis (Live at Memorial Auditorium, Worcester, MA - November 1975)
DR12 0.00 dB -15.73 dB 2:52 043-Blowin' In the Wind (Live at Memorial Auditorium, Worcester, MA - November 1975)
DR13 -0.01 dB -17.36 dB 3:59 044-Wild Mountain Thyme (Live at Memorial Auditorium, Worcester, MA - November 1975)
DR13 0.00 dB -15.69 dB 2:43 045-Mama, You Been on My Mind (Live at Memorial Auditorium, Worcester, MA - November 1975)
DR13 0.00 dB -17.36 dB 3:32 046-Dark as a Dungeon (Live at Memorial Auditorium, Worcester, MA - November 1975)
DR14 0.00 dB -17.29 dB 4:24 047-I Shall Be Released (Live at Memorial Auditorium, Worcester, MA - November 1975)
DR14 -1.30 dB -18.37 dB 4:49 048-Tangled Up In Blue (Live at Memorial Auditorium, Worcester, MA - November 1975)
DR14 0.00 dB -16.62 dB 3:59 049-Oh, Sister (Live at Memorial Auditorium, Worcester, MA - November 1975)
DR8 -0.22 dB -11.35 dB 8:21 050-Hurricane (Live at Memorial Auditorium, Worcester, MA - November 1975)
DR11 0.00 dB -13.97 dB 3:51 051-One More Cup of Coffee (Valley Below) (Live at Memorial Auditorium, Worcester, MA - November 1975)
DR13 0.00 dB -18.35 dB 4:45 052-Sara (Live at Memorial Auditorium, Worcester, MA - November 1975)
DR11 0.00 dB -13.45 dB 4:18 053-Just Like a Woman (Live at Memorial Auditorium, Worcester, MA - November 1975)
DR11 -0.69 dB -14.89 dB 4:51 054-Knockin' on Heaven's Door (Live at Memorial Auditorium, Worcester, MA - November 1975)
DR10 -0.42 dB -12.93 dB 4:00 055-This Land Is Your Land (Live at Memorial Auditorium, Worcester, MA - November 1975)
DR11 -1.82 dB -15.56 dB 4:24 056-When I Paint My Masterpiece (Live at Harvard Square Theatre, Cambridge, MA - November 1975)
DR11 -1.97 dB -15.62 dB 5:21 057-It Ain't Me, Babe (Live at Harvard Square Theatre, Cambridge, MA - November 1975)
DR11 -1.80 dB -16.29 dB 5:24 058-The Lonesome Death of Hattie Carroll (Live at Harvard Square Theatre, Cambridge, MA - November 1975)
DR11 -2.10 dB -15.57 dB 3:26 059-It Takes a Lot to Laugh, It Takes a Train to Cry (Live at Harvard Square Theatre, Cambridge, MA - November 1975)
DR12 -1.96 dB -16.19 dB 5:15 060-Romance in Durango (Live at Harvard Square Theatre, Cambridge, MA - November 1975)
DR12 -2.04 dB -16.89 dB 5:27 061-Isis (Live at Harvard Square Theatre, Cambridge, MA - November 1975)
DR12 -2.60 dB -17.37 dB 2:37 062-Blowin' in the Wind (Live at Harvard Square Theatre, Cambridge, MA - November 1975)
DR12 -2.43 dB -18.20 dB 4:06 063-Wild Mountain Thyme (Live at Harvard Square Theatre, Cambridge, MA - November 1975)
DR13 -2.43 dB -18.30 dB 3:02 064-Mama, You Been on My Mind (Live at Harvard Square Theatre, Cambridge, MA - November 1975)
DR13 -2.88 dB -19.84 dB 3:30 065-Dark as a Dungeon (Live at Harvard Square Theatre, Cambridge, MA - November 1975)
DR13 -2.68 dB -19.34 dB 4:16 066-I Shall Be Released (Live at Harvard Square Theatre, Cambridge, MA - November 1975)
DR13 -4.16 dB -20.70 dB 4:40 067-Simple Twist of Fate (Live at Harvard Square Theatre, Cambridge, MA - November 1975)
DR13 -4.16 dB -20.35 dB 3:42 068-Oh, Sister (Live at Harvard Square Theatre, Cambridge, MA - November 1975)
DR12 -2.33 dB -16.81 dB 8:20 069-Hurricane (Live at Harvard Square Theatre, Cambridge, MA - November 1975)
DR13 -1.88 dB -17.83 dB 3:56 070-One More Cup of Coffee (Valley Below) (Live at Harvard Square Theatre, Cambridge, MA - November 1975)
DR11 -2.28 dB -17.15 dB 5:09 071-Sara (Live at Harvard Square Theatre, Cambridge, MA - November 1975)
DR12 -2.22 dB -17.08 dB 4:13 072-Just Like a Woman (Live at Harvard Square Theatre, Cambridge, MA - November 1975)
DR11 -2.05 dB -16.53 dB 4:03 073-Knockin' on Heaven's Door (Live at Harvard Square Theatre, Cambridge, MA - November 1975)
DR10 -1.95 dB -14.45 dB 4:06 074-This Land is Your Land (Live at Harvard Square Theatre, Cambridge, MA - November 1975)
DR11 -2.18 dB -14.96 dB 4:17 075-When I Paint My Masterpiece (Live at Boston Music Hall, Boston, MA - November 21, 1975 - Afternoon)
DR11 -2.68 dB -16.70 dB 5:15 076-It Ain't Me, Babe (Live at Boston Music Hall, Boston, MA - November 21, 1975 - Afternoon)
DR11 -2.25 dB -15.92 dB 5:18 077-The Lonesome Death of Hattie Carroll (Live at Boston Music Hall, Boston, MA - November 21, 1975 - Afternoon)
DR11 -2.19 dB -15.39 dB 5:26 078-A Hard Rain's A-Gonna Fall (Live at Boston Music Hall, Boston, MA - November 21, 1975 - Afternoon)
DR12 -2.20 dB -16.79 dB 4:37 079-Romance In Durango (Live at Boston Music Hall, Boston, MA - November 21, 1975 - Afternoon)
DR14 -2.07 dB -18.27 dB 5:51 080-Isis (Live at Boston Music Hall, Boston, MA - November 21, 1975 - Afternoon)
DR13 -2.69 dB -18.24 dB 2:46 081-The Times They Are A-Changin' (Live at Boston Music Hall, Boston, MA - November 21, 1975 - Afternoon)
DR13 -2.55 dB -20.47 dB 3:04 082-I Dreamed I Saw St. Augustine (Live at Boston Music Hall, Boston, MA - November 21, 1975 - Afternoon)
DR13 -2.31 dB -18.79 dB 2:50 083-Mama, You Been on My Mind (Live at Boston Music Hall, Boston, MA - November 21, 1975 - Afternoon)
DR12 -2.49 dB -18.63 dB 2:38 084-Never Let Me Go (Live at Boston Music Hall, Boston, MA - November 21, 1975 - Afternoon)
DR13 -3.25 dB -19.94 dB 4:36 085-I Shall Be Released (Live at Boston Music Hall, Boston, MA - November 21, 1975 - Afternoon)
DR12 -3.95 dB -19.03 dB 5:47 086-Mr. Tambourine Man (Live at Boston Music Hall, Boston, MA - November 21, 1975 - Afternoon)
DR14 -1.94 dB -19.40 dB 4:16 087-Oh, Sister (Live at Boston Music Hall, Boston, MA - November 21, 1975 - Afternoon)
DR9 -4.12 dB -15.87 dB 8:03 088-Hurricane (Live at Boston Music Hall, Boston, MA - November 21, 1975 - Afternoon)
DR12 -1.81 dB -17.89 dB 4:03 089-One More Cup of Coffee (Valley Below) (Live at Boston Music Hall, Boston, MA - November 21, 1975 - Afternoon)
DR12 -2.17 dB -18.30 dB 4:42 090-Sara (Live at Boston Music Hall, Boston, MA - November 21, 1975 - Afternoon)
DR11 -2.08 dB -16.69 dB 4:21 091-Just Like a Woman (Live at Boston Music Hall, Boston, MA - November 21, 1975 - Afternoon)
DR10 -1.64 dB -15.12 dB 3:59 092-Knockin' on Heaven's Door (Live at Boston Music Hall, Boston, MA - November 21, 1975 - Afternoon)
DR9 -2.14 dB -13.15 dB 3:42 093-This Land is Your Land (Live at Boston Music Hall, Boston, MA - November 21, 1975 - Afternoon)
DR12 -0.94 dB -14.97 dB 4:28 094-When I Paint My Masterpiece (Live at Boston Music Hall, Boston, MA - November 21, 1975 - Evening)
DR11 -1.51 dB -15.93 dB 5:13 095-It Ain't Me, Babe (Live at Boston Music Hall, Boston, MA - November 21, 1975 - Evening)
DR13 -1.05 dB -17.09 dB 5:31 096-The Lonesome Death of Hattie Carroll (Live at Boston Music Hall, Boston, MA - November 21, 1975 - Evening)
DR11 -0.07 dB -14.98 dB 3:29 097-It Takes a Lot to Laugh, It Takes a Train to Cry (Live at Boston Music Hall, Boston, MA - November 21, 1975 - Evening)
DR12 -1.72 dB -16.57 dB 4:52 098-Romance in Durango (Live at Boston Music Hall, Boston, MA - November 21, 1975 - Evening)
DR12 -1.49 dB -16.12 dB 5:22 099-Isis (Live at Boston Music Hall, Boston, MA - November 21, 1975 - Evening)
DR13 -2.53 dB -20.20 dB 2:53 100-Blowin' in the Wind (Live at Boston Music Hall, Boston, MA - November 21, 1975 - Evening)
DR15 -1.06 dB -20.51 dB 5:16 101-The Water Is Wide (Live at Boston Music Hall, Boston, MA - November 21, 1975 - Evening)
DR13 -0.56 dB -17.59 dB 2:55 102-Mama, You Been on My Mind (Live at Boston Music Hall, Boston, MA - November 21, 1975 - Evening)
DR13 -2.01 dB -19.18 dB 3:49 103-Dark as a Dungeon (Live at Boston Music Hall, Boston, MA - November 21, 1975 - Evening)
DR14 -1.39 dB -18.47 dB 4:28 104-I Shall Be Released (Live at Boston Music Hall, Boston, MA - November 21, 1975 - Evening)
DR13 -1.58 dB -20.47 dB 3:13 105-I Don't Believe You (She Acts Like We Never Have Met) (Live at Boston Music Hall, Boston, MA - November 21, 1975 - Evening)
DR14 -1.91 dB -20.26 dB 5:15 106-Tangled Up In Blue (Live at Boston Music Hall, Boston, MA - November 21, 1975 - Evening)
DR15 -2.15 dB -20.70 dB 4:18 107-Oh, Sister (Live at Boston Music Hall, Boston, MA - November 21, 1975 - Evening)
DR12 -3.26 dB -17.60 dB 8:08 108-Hurricane (Live at Boston Music Hall, Boston, MA - November 21, 1975 - Evening)
DR16 -1.36 dB -20.67 dB 4:28 109-One More Cup of Coffee (Valley Below) (Live at Boston Music Hall, Boston, MA - November 21, 1975 - Evening)
DR15 -3.04 dB -21.29 dB 5:04 110-Sara (Live at Boston Music Hall, Boston, MA - November 21, 1975 - Evening)
DR12 -3.04 dB -18.12 dB 4:12 111-Just Like a Woman (Live at Boston Music Hall, Boston, MA - November 21, 1975 - Evening)
DR14 -1.22 dB -18.50 dB 4:10 112-Knockin' on Heaven's Door (Live at Boston Music Hall, Boston, MA - November 21, 1975 - Evening)
DR12 -0.62 dB -14.76 dB 3:50 113-This Land is Your Land (Live at Boston Music Hall, Boston, MA - November 21, 1975 - Evening)
DR13 -0.43 dB -15.03 dB 4:22 114-When I Paint My Masterpiece (Live at Montreal Forum, Montreal, Quebec - December 1975)
DR12 -0.35 dB -15.05 dB 5:17 115-It Ain't Me, Babe (Live at Montreal Forum, Montreal, Quebec - December 1975)
DR12 -1.01 dB -16.14 dB 5:25 116-The Lonesome Death of Hattie Carroll (Live at Montreal Forum, Montreal, Quebec - December 1975)
DR11 -0.63 dB -13.88 dB 3:55 117-Tonight I'll Be Staying Here with You (Live at Montreal Forum, Montreal, Quebec - December 1975)
DR11 -0.39 dB -12.98 dB 5:19 118-A Hard Rain's A-Gonna Fall (Live at Montreal Forum, Montreal, Quebec - December 1975)
DR12 -0.38 dB -14.57 dB 5:17 119-Romance in Durango (Live at Montreal Forum, Montreal, Quebec - December 1975)
DR12 -0.51 dB -14.57 dB 5:18 120-Isis (Live at Montreal Forum, Montreal, Quebec - December 1975)
DR12 -1.31 dB -16.17 dB 2:37 121-Blowin' in the Wind (Live at Montreal Forum, Montreal, Quebec - December 1975)
DR13 -0.72 dB -17.49 dB 3:38 122-Dark as a Dungeon (Live at Montreal Forum, Montreal, Quebec - December 1975)
DR14 -0.48 dB -16.56 dB 2:50 123-Mama, You Been on My Mind (Live at Montreal Forum, Montreal, Quebec - December 1975)
DR13 -0.31 dB -17.30 dB 2:57 124-Never Let Me Go (Live at Montreal Forum, Montreal, Quebec - December 1975)
DR13 -0.36 dB -16.30 dB 3:05 125-I Dreamed I Saw St. Augustine (Live at Montreal Forum, Montreal, Quebec - December 1975)
DR13 -0.14 dB -16.42 dB 4:24 126-I Shall Be Released (Live at Montreal Forum, Montreal, Quebec - December 1975)
DR13 -2.31 dB -20.19 dB 4:24 127-It's All over Now, Baby Blue (Live at Montreal Forum, Montreal, Quebec - December 1975)
DR16 -3.02 dB -22.54 dB 3:35 128-Love Minus Zero / No Limit (Live at Montreal Forum, Montreal, Quebec - December 1975)
DR14 -2.28 dB -19.56 dB 6:32 129-Tangled Up In Blue (Live at Montreal Forum, Montreal, Quebec - December 1975)
DR15 -1.39 dB -19.62 dB 3:40 130-Oh, Sister (Live at Montreal Forum, Montreal, Quebec - December 1975)
DR13 -1.65 dB -16.51 dB 7:55 131-Hurricane (Live at Montreal Forum, Montreal, Quebec - December 1975)
DR15 -0.97 dB -18.45 dB 4:12 132-One More Cup of Coffee (Valley Below) (Live at Montreal Forum, Montreal, Quebec - December 1975)
DR16 -0.60 dB -21.21 dB 4:45 133-Sara (Live at Montreal Forum, Montreal, Quebec - December 1975)
DR13 -1.00 dB -17.15 dB 4:49 134-Just Like a Woman (Live at Montreal Forum, Montreal, Quebec - December 1975)
DR12 -1.12 dB -16.13 dB 4:05 135-Knockin' on Heaven's Door (Live at Montreal Forum, Montreal, Quebec - December 1975)
DR13 -0.85 dB -15.68 dB 3:45 136-This Land is Your Land (Live at Montreal Forum, Montreal, Quebec - December 1975)
DR14 -2.67 dB -20.39 dB 3:46 137-One Too Many Mornings (Live at Gerdes Folk City, New York City, NY - October 1975)
DR14 -2.57 dB -20.51 dB 5:54 138-Simple Twist of Fate (Live at Mahjong Parlor, Falmouth, MA - October 1975)
DR12 -1.89 dB -17.84 dB 7:17 139-Isis (Live at Technical University, Lowell, MA - November 1975)
DR13 -5.26 dB -20.80 dB 5:36 140-With God On Our Side (Live at Civic Center, Providence, RI - November 1975)
DR9 -6.46 dB -19.99 dB 5:45 141-It's Alright Ma (I'm Only Bleeding) (Live at Civic Center, Providence, RI - November 1975)
DR12 -5.34 dB -19.47 dB 1:00 142-Radio Advertisement for Niagara Falls shows
DR11 -3.38 dB -19.83 dB 2:53 143-The Ballad of Ira Hayes (Live at Tuscarora Reservation, NY - November 1975)
DR13 -5.86 dB -24.22 dB 1:52 144-Your Cheatin' Heart (Live)
DR11 -7.36 dB -21.98 dB 3:08 145-Fourth Time Around (Live at Civic Center, Augusta, ME - November 1975)
DR11 -2.79 dB -19.58 dB 2:03 146-The Tracks of My Tears (Live at Chateau Champlain, Montreal, Quebec - December 1975)
DR11 -5.02 dB -20.21 dB 1:52 147-Jesse James (Live at Montreal Stables, Montreal, Quebec - December 1975)
DR11 -4.51 dB -18.08 dB 3:32 148-It Takes a Lot to Laugh, It Takes a Train to Cry (Live at The Night of the Hurricane, Madison Square Garden, New York, NY - December 1975)
––––––––––––––––––––––––––––––––––––––––

Number of tracks: 148
Official DR value: DR13

Samplerate: 96000 Hz
Channels: 2
Bits per sample: 24
Bitrate: 2478 kbps
Codec: FLAC
================================================================================



Thanks to the Original customer.