Serge Gainsbourg & Brigitte Bardot - Bonnie and Clyde (1968/2016) [Official Digital Download]

Posted By: SERTiL
Serge Gainsbourg & Brigitte Bardot - Bonnie and Clyde (1968/2016) [Official Digital Download]

Serge Gainsbourg & Brigitte Bardot - Bonnie and Clyde (1968/2016)
FLAC (tracks) 24-bit/48 kHz | Time - 29:38 minutes | 350 MB
Studio Master, Official Digital Download | Artwork: Front Cover

Serge and Bardot Together on this Great High-Res-Reissue. First time available in 24bit high-resolution audio. Digitally Remastered from the original analog mastertapes.

„Bonnie and Clyde isn't actually a full-fledged collaboration between Serge Gainsbourg and Brigitte Bardot; during their storied mid-'60s fling the two French cultural icons recorded just a handful of tracks together, only a couple of which appear here. Nevertheless, this is a worthwhile collection. In addition to the pair's 'Bonnie and Clyde' and 'Comic Strip,' this album features earlier Gainsbourg numbers, as well as Bardot recordings of compositions by Gainsbourg and others. The moody title track alone justifies the price of admission. Bardot's vocals inject a wistful melodic dimension into Gainsbourg's sung-spoken account of the ill-fated gangsters, producing one of pop music's great duets. Gainsbourg was enthralled by American pop culture and the cabaret-style 'Comic Strip' memorably exemplifies that orientation. His lyrics lure Bardot into his cartoon world and she provides the requisite onomatopoeic interjections ('Shebam! Pow! Blop! Wizz!'). In a similarly American vein, on 'Bubble Gum,' a Gainsbourg-penned Bardot single, she sings about love and candy over a plinky-plonk saloon piano evoking the silent film era. Elsewhere, Gainsbourg's Hollywood fascination takes a B-Movie turn, the camp 'Docteur Jekyll et Monsieur Hyde' suggesting the Monks at the Eurovision Song Contest. There was always more to Gainsbourg's work than his love of Americana, though, and his incorporation of Afro-Caribbean rhythms was especially striking: 'Pauvre Lola,' for instance, percolates with an infectious beat. Despite much of this material's playful character, listeners also glimpse another side of Gainsbourg. During his career, he sang about Harley motorcycles and incest and composed a song that involved simulated farting, but he was also deeply cultured. In that vein, 'Baudelaire' places the 19th century poet's 'Le Serpent Qui Danse' in an unlikely tropical lounge setting. Of course, no Gainsbourg collection would be complete without a nod to his dissolute side, and 'Intoxicated Man' fits the bill with its appropriately louche, swaggering groove.“

Tracklist:
01. Brigitte Bardot & Serge Gainsbourg - Bonnie And Clyde (04:16)
02. Brigitte Bardot - Bubble Gum (01:45)
03. Brigitte Bardot & Serge Gainsbourg - Comic Strip (02:10)
04. Brigitte Bardot - Un jour comme un autre (02:21)
05. Serge Gainsbourg - Pauvre Lola (02:28)
06. Serge Gainsbourg - L'eau à la bouche (BOF "L'eau à la bouche") (02:30)
07. Serge Gainsbourg - La javanaise (02:30)
08. Brigitte Bardot - La madrague (02:33)
09. Serge Gainsbourg - Intoxicated Man (02:37)
10. Brigitte Bardot - Everybody Loves My Baby (02:11)
11. Serge Gainsbourg - Baudelaire (02:27)
12. Serge Gainsbourg - Docteur Jekyll et monsieur Hyde (01:56)

foobar2000 1.3.7 / Dynamic Range Meter 1.1.1
log date: 2018-01-15 17:29:30

––––––––––––––––––––––––––––––––––––––––
Analyzed: Brigitte Bardot & Serge Gainsbourg / Bonnie & Clyde (1-2)
Brigitte Bardot / Bonnie & Clyde (3-6)
Serge Gainsbourg / Bonnie & Clyde (7-12)
––––––––––––––––––––––––––––––––––––––––

DR Peak RMS Duration Track
––––––––––––––––––––––––––––––––––––––––
DR14 -0.86 dB -15.80 dB 4:16 01-Bonnie And Clyde
DR13 -1.33 dB -16.64 dB 2:10 03-Comic Strip
DR11 -1.23 dB -15.26 dB 1:45 02-Bubble Gum
DR12 -2.46 dB -16.36 dB 2:21 04-Un jour comme un autre
DR10 -2.83 dB -15.83 dB 2:33 08-La madrague
DR11 -2.82 dB -16.52 dB 2:11 10-Everybody Loves My Baby
DR12 -3.12 dB -16.84 dB 2:28 05-Pauvre Lola
DR11 -0.76 dB -15.39 dB 2:30 06-L'eau à la bouche (BOF "L'eau à la bouche")
DR11 -0.76 dB -15.25 dB 2:30 07-La javanaise
DR15 -0.27 dB -17.35 dB 2:37 09-Intoxicated Man
DR13 -0.14 dB -16.85 dB 2:27 11-Baudelaire
DR13 -0.92 dB -16.97 dB 1:56 12-Docteur Jekyll et monsieur Hyde
––––––––––––––––––––––––––––––––––––––––

Number of tracks: 12
Official DR value: DR12

Samplerate: 48000 Hz
Channels: 2
Bits per sample: 24
Bitrate: 1607 kbps
Codec: FLAC
================================================================================


Thanks to the Original customer.