Raphaël Sévère, Adam Laloum & Victor Julien Laferrière - Brahms: Sonata No. 1 & 2 for Clarinet and Piano (2014) [24/88]

Posted By: SERTiL
Raphaël Sévère, Adam Laloum & Victor Julien Laferrière - Brahms: Sonata No. 1 & 2 for Clarinet and Piano (2014) [24/88]

Raphaël Sévère, Adam Laloum & Victor Julien Laferrière - Brahms: Sonata No. 1 & 2 for Clarinet and Piano - Trio in A Minor for Clarinet, Cello and Piano (2014)
FLAC (tracks) 24-bit/88.2 kHz | Time - 71:30 minutes | 1.10GB
Studio Master, Official Digital Download | Artwork: Digital Booklet

Three musician friends meet here for a programme devoted to Brahms’s musical testaments. The 20-year-old clarinetist Raphaël Sévère, blessed with a magnificent sonority, and Adam Laloum, whose first disc was dedicated to Brahmsian twilights, together demonstrate that, in the burnished autumnal colours of these sonatas, the composer chose the clarinet to bid a melancholy farewell to the world. Victor Julien-Laferrière joins them for the elegiac Trio Op.114.

Tracklist:

Johannes Brahms (1833-1897)

01. Trio for Clarinet, Cello and Piano in A Minor, Op. 114: I. Allegro alla breve
02. Trio for Clarinet, Cello and Piano in A Minor, Op. 114: II. Adagio
03. Trio for Clarinet, Cello and Piano in A Minor, Op. 114: III. Andantino grazioso
04. Trio for Clarinet, Cello and Piano in A Minor, Op. 114: IV. Finale: Allegro
05. Sonata for Clarinet and Piano No. 1 in F Minor, Op. 120: I. Allegro appassionato
06. Sonata for Clarinet and Piano No. 1 in F Minor, Op. 120: II. Andante, un poco Adagio
07. Sonata for Clarinet and Piano No. 1 in F Minor, Op. 120: III. Allegro grazioso
08. Sonata for Clarinet and Piano No. 1 in F Minor, Op. 120: IV. Vivace
09. Sonata for Clarinet and Piano No. 2 in B Flat Major, Op. 120: I. Allegro amabile
10. Sonata for Clarinet and Piano No. 2 in B Flat Major, Op. 120: II. Allegro appassionato
11. Sonata for Clarinet and Piano No. 2 in B Flat Major, Op. 120: III. Andante con moto

Personnel:
Adam Laloum, piano
Raphaël Sévère, clarinet
Victor Julien-Laferrière, cello

foobar2000 1.3.7 / Dynamic Range Meter 1.1.1
log date: 2018-01-16 21:12:17

––––––––––––––––––––––––––––––––––––––––
Analyzed: Raphaël Sévère, Adam Laloum, Victor Julien Laferrière / Brahms: Sonata No. 1 & 2 for Clarinet and Piano - Trio in A Minor for Clarinet, Cello and Piano
––––––––––––––––––––––––––––––––––––––––

DR Peak RMS Duration Track
––––––––––––––––––––––––––––––––––––––––
DR11 -0.56 dB -17.95 dB 8:05 01-Trio for Clarinet, Cello and Piano in A Minor, Op. 114: I. Allegro alla breve
DR12 -5.67 dB -22.85 dB 8:00 02-Trio for Clarinet, Cello and Piano in A Minor, Op. 114: II. Adagio
DR11 -3.27 dB -19.83 dB 4:34 03-Trio for Clarinet, Cello and Piano in A Minor, Op. 114: III. Andantino grazioso
DR11 -0.57 dB -16.62 dB 4:38 04-Trio for Clarinet, Cello and Piano in A Minor, Op. 114: IV. Finale: Allegro
DR11 -0.56 dB -17.48 dB 8:31 05-Sonata for Clarinet and Piano No. 1 in F Minor, Op. 120: I. Allegro appassionato
DR11 -6.18 dB -24.12 dB 5:28 06-Sonata for Clarinet and Piano No. 1 in F Minor, Op. 120: II. Andante, un poco Adagio
DR10 -4.31 dB -20.71 dB 4:40 07-Sonata for Clarinet and Piano No. 1 in F Minor, Op. 120: III. Allegro grazioso
DR12 -0.98 dB -17.38 dB 5:21 08-Sonata for Clarinet and Piano No. 1 in F Minor, Op. 120: IV. Vivace
DR11 -2.30 dB -19.95 dB 9:20 09-Sonata for Clarinet and Piano No. 2 in B Flat Major, Op. 120: I. Allegro amabile
DR12 -0.55 dB -17.44 dB 5:20 10-Sonata for Clarinet and Piano No. 2 in B Flat Major, Op. 120: II. Allegro appassionato
DR13 -0.57 dB -19.77 dB 7:41 11-Sonata for Clarinet and Piano No. 2 in B Flat Major, Op. 120: III. Andante con moto
––––––––––––––––––––––––––––––––––––––––

Number of tracks: 11
Official DR value: DR11

Samplerate: 88200 Hz
Channels: 2
Bits per sample: 24
Bitrate: 2158 kbps
Codec: FLAC
================================================================================


Thanks to the Original customer.