Duo Belder Kimura - C.P.E. Bach: Complete Works for Keyboard & Violin (2017) [Official Digital Download 24/96]

Posted By: SERTiL
Duo Belder Kimura - C.P.E. Bach: Complete Works for Keyboard & Violin (2017) [Official Digital Download 24/96]

Duo Belder Kimura - C.P.E. Bach: Complete Works for Keyboard & Violin (2017)
FLAC (tracks) 24-bit/96 kHz | Time - 132:07 minutes | 2.30 GB
Studio Master, Official Digital Download | Artwork: Digital booklet

Amsterdam-based period violin and keyboard ensemble, Duo Belder Kimura, make their Resonus Classics debut with a comprehensive and compelling survey of the complete works for violin and keyboard by Carl Philipp Emanuel Bach across two discs.

Rising star violinist Rie Kimura and prolific keyboardist and recording artist Pieter-Jan Belder combine to breathe new life into these remarkable and challenging jewels of the early violin and keyboard repertoire in a collection that also includes the Fantasia in F-sharp minor, Wq. 80 and Arioso with Variations in A major, Wq. 79.

TRACKLIST

Carl Philipp Emanuel Bach (1714-1788)

Violin Sonata in C Major, Wq.73
1 Violin Sonata in C Major, Wq.73: I. Allegro di molto 03:18
2 Violin Sonata in C Major, Wq.73: II. Andante 04:40
3 Violin Sonata in C Major, Wq.73: III. Allegretto 05:18

Violin Sonata in F Major, Wq.75
4 Violin Sonata in F Major, Wq.75: I. Allegro 04:56
5 Violin Sonata in F Major, Wq.75: II. Larghetto 06:10
6 Violin Sonata in F Major, Wq.75: III. Allegro 05:07

Violin Sinfonia in D Major, Wq.74
7 Violin Sinfonia in D Major, Wq.74: I. Allegro 03:00
8 Violin Sinfonia in D Major, Wq.74: II. Andante 02:44
9 Violin Sinfonia in D Major, Wq.74: III. Tempo di minuetto 02:17

Violin Sonata in B Minor, Wq.76
10 Violin Sonata in B Minor, Wq.76: I. Allegro moderato 07:35
11 Violin Sonata in B Minor, Wq.76: II. Poco andante 04:57
12 Violin Sonata in B Minor, Wq.76: III. Allegro siciliano 05:23


13 Fantasia in F-Sharp Minor, Wq.80 14:06

Violin Sonata in B-Flat Major, Wq.77
14 Violin Sonata in B-Flat Major, Wq.77: I. Allegro di molto 06:44
15 Violin Sonata in B-Flat Major, Wq.77: II. Largo 05:00
16 Violin Sonata in B-Flat Major, Wq.77: III. Presto 04:44

Violin Sonata in D Minor, Wq.72
17 Violin Sonata in D Minor, Wq.72: I. Adagio ma non troppo 02:47
18 Violin Sonata in D Minor, Wq.72: II. Allegro 02:03
19 Violin Sonata in D Minor, Wq.72: III. Allegro 03:16

20 Arioso with Variations in A Major, Wq.79 07:33

Violin Sonata in C Minor, Wq.78
21 Violin Sonata in C Minor, Wq.78: I. Allegro moderato 07:07
22 Violin Sonata in C Minor, Wq.78: II. Adagio ma non troppo 06:19
23 Violin Sonata in C Minor, Wq.78: III. Presto 05:31

Violin Sonata in D Major, Wq.71
24 Violin Sonata in D Major, Wq.71: I. Poco adagio 03:28
25 Violin Sonata in D Major, Wq.71: II. Allegro 02:26
26 Violin Sonata in D Major, Wq.71: III. Adagio 03:14
27 Violin Sonata in D Major, Wq.71: IV. Menuet I & II 02:37

PERSONNEL
Rie Kimura, baroque violin
Pieter-Jan Belder, fortepiano & harpsichord

foobar2000 1.3.7 / Dynamic Range Meter 1.1.1
log date: 2017-07-12 20:23:56

––––––––––––––––––––––––––––––––––––––––
Analyzed: Rie Kimura, Pieter-Jan Belder / Bach, C.P.E.: Complete Works for Keyboard & Violin
––––––––––––––––––––––––––––––––––––––––

DR Peak RMS Duration Track
––––––––––––––––––––––––––––––––––––––––
DR14 -14.56 dB -31.96 dB 3:18 01-Violin Sonata in C Major, Wq.73: I. Allegro di molto
DR15 -15.50 dB -34.02 dB 4:40 02-Violin Sonata in C Major, Wq.73: II. Andante
DR14 -13.94 dB -32.33 dB 5:18 03-Violin Sonata in C Major, Wq.73: III. Allegretto
DR15 -10.61 dB -33.83 dB 4:56 04-Violin Sonata in F Major, Wq.75: I. Allegro
DR13 -15.18 dB -34.13 dB 6:10 05-Violin Sonata in F Major, Wq.75: II. Larghetto
DR14 -13.87 dB -31.96 dB 5:07 06-Violin Sonata in F Major, Wq.75: III. Allegro
DR13 -10.42 dB -29.16 dB 3:00 07-Violin Sinfonia in D Major, Wq.74: I. Allegro
DR12 -17.55 dB -34.82 dB 2:44 08-Violin Sinfonia in D Major, Wq.74: II. Andante
DR14 -13.18 dB -32.37 dB 2:17 09-Violin Sinfonia in D Major, Wq.74: III. Tempo di minuetto
DR13 -12.95 dB -31.84 dB 7:35 10-Violin Sonata in B Minor, Wq.76: I. Allegro moderato
DR14 -15.15 dB -34.16 dB 4:57 11-Violin Sonata in B Minor, Wq.76: II. Poco andante
DR14 -11.42 dB -32.53 dB 5:23 12-Violin Sonata in B Minor, Wq.76: III. Allegro siciliano
DR18 -10.79 dB -33.72 dB 14:06 13-Fantasia in F-Sharp Minor, Wq.80
DR15 -12.26 dB -31.28 dB 6:44 14-Violin Sonata in B-Flat Major, Wq.77: I. Allegro di molto
DR14 -14.99 dB -35.04 dB 5:00 15-Violin Sonata in B-Flat Major, Wq.77: II. Largo
DR13 -14.07 dB -32.80 dB 4:44 16-Violin Sonata in B-Flat Major, Wq.77: III. Presto
DR13 -13.75 dB -33.63 dB 2:47 17-Violin Sonata in D Minor, Wq.72: I. Adagio ma non troppo
DR13 -16.45 dB -33.01 dB 2:03 18-Violin Sonata in D Minor, Wq.72: II. Allegro
DR16 -11.37 dB -31.49 dB 3:16 19-Violin Sonata in D Minor, Wq.72: III. Allegro
DR14 -13.64 dB -33.18 dB 7:33 20-Arioso with Variations in A Major, Wq.79
DR14 -12.61 dB -32.04 dB 7:07 21-Violin Sonata in C Minor, Wq.78: I. Allegro moderato
DR12 -16.96 dB -34.92 dB 6:19 22-Violin Sonata in C Minor, Wq.78: II. Adagio ma non troppo
DR15 -12.89 dB -31.52 dB 5:31 23-Violin Sonata in C Minor, Wq.78: III. Presto
DR14 -12.80 dB -31.97 dB 3:28 24-Violin Sonata in D Major, Wq.71: I. Poco adagio
DR13 -13.40 dB -30.24 dB 2:26 25-Violin Sonata in D Major, Wq.71: II. Allegro
DR13 -15.37 dB -34.00 dB 3:14 26-Violin Sonata in D Major, Wq.71: III. Adagio
DR13 -13.69 dB -31.48 dB 2:37 27-Violin Sonata in D Major, Wq.71: IV. Menuet I & II
––––––––––––––––––––––––––––––––––––––––

Number of tracks: 27
Official DR value: DR14

Samplerate: 96000 Hz
Channels: 2
Bits per sample: 24
Bitrate: 2493 kbps
Codec: FLAC
================================================================================


Thanks to the Original customer.