Matthew Sharp, English Symphony Orchestra & Kenneth Woods - Hans Gál: Concertino for Cello and Strings (2018) [24/88]

Posted By: SERTiL
Matthew Sharp, English Symphony Orchestra & Kenneth Woods - Hans Gál: Concertino for Cello and Strings (2018) [24/88]

Matthew Sharp, English Symphony Orchestra & Kenneth Woods - Hans Gál: Concertino for Cello and Strings (2018)
FLAC (tracks) 24-bit/88.2 kHz | Time - 67:55 minutes | 1.15 GB
Studio Master, Official Digital Download | Artwork: Digital Booklet

Bringing to light another of Hans Gál’s gorgeously melodic and finely crafted scores, AVIE presents the world premiere recording of the Austrian émigré’s Concertino for Cello and String Orchestra with Matthew Sharp supported by Gál aficionado Kenneth Woods conducting the English Symphony Orchestra. Gál’s compositional output was vast, varied and consistent, from his early success in 1920’s Germany, through internment during World War II, to his days in Edinburgh where he settled, became a respected academic and lived out his long life. His vivacious Cello Concertino was written in 1965, when he was 75 years old. The two spirited solo cello works were among his last, written at the age of 92.

Tracklist:

Hans Gál (1890-1987)

01. Concertino for Cello and String Orchestra, Op. 87: I. First Movement
02. Concertino for Cello and String Orchestra, Op. 87: II. Adagio
03. Concertino for Cello and String Orchestra, Op. 87: III. Allegretto ritenuto assai
04. Sonata for Solo Cello, Op. 109a: I. Andante – allegro comodo
05. Sonata for Solo Cello, Op. 109a: II. Quasi menuetto lento
06. Sonata for Solo Cello, Op. 109a: III. Vivace
07. Suite for Solo Cello, Op. 109b : I. Introduzione e Fughetta. Grave – Allegro molto moderato
08. Suite for Solo Cello, Op. 109b : II. Alla Marcia. Allegro moderato
09. Suite for Solo Cello, Op. 109b: III. Cavatina. Adagio
10. Suite for Solo Cello, Op. 109b : IV. Rondino. Allegro ma non troppo

Personnel:
Matthew Sharp (cello)
English Symphony Orchestra
Kenneth Woo (conductor)

foobar2000 1.3.7 / Dynamic Range Meter 1.1.1
log date: 2018-02-19 00:05:38

––––––––––––––––––––––––––––––––––––––––
Analyzed: Matthew Sharp, English Symphony Orchestra, Kenneth Woods / Hans Gál: Concertino for Cello and Strings
––––––––––––––––––––––––––––––––––––––––

DR Peak RMS Duration Track
––––––––––––––––––––––––––––––––––––––––
DR13 -0.49 dB -17.10 dB 9:39 01-Concertino for Cello and String Orchestra, Op. 87: I. First Movement
DR13 -1.65 dB -19.60 dB 8:04 02-Concertino for Cello and String Orchestra, Op. 87: II. Adagio
DR12 -0.48 dB -17.04 dB 7:05 03-Concertino for Cello and String Orchestra, Op. 87: III. Allegretto ritenuto assai
DR16 -0.91 dB -21.21 dB 8:34 04-Sonata for Solo Cello, Op. 109a: I. Andante – allegro comodo
DR13 -4.60 dB -22.49 dB 6:49 05-Sonata for Solo Cello, Op. 109a: II. Quasi menuetto lento
DR14 -1.55 dB -21.15 dB 5:25 06-Sonata for Solo Cello, Op. 109a: III. Vivace
DR13 -2.23 dB -19.13 dB 5:18 07-Suite for Solo Cello, Op. 109b : I. Introduzione e Fughetta. Grave – Allegro molto moderato
DR15 -2.42 dB -21.30 dB 6:42 08-Suite for Solo Cello, Op. 109b : II. Alla Marcia. Allegro moderato
DR13 -7.47 dB -24.77 dB 4:25 09-Suite for Solo Cello, Op. 109b: III. Cavatina. Adagio
DR15 -2.74 dB -21.48 dB 6:01 10-Suite for Solo Cello, Op. 109b : IV. Rondino. Allegro ma non troppo
––––––––––––––––––––––––––––––––––––––––

Number of tracks: 10
Official DR value: DR14

Samplerate: 88200 Hz
Channels: 2
Bits per sample: 24
Bitrate: 2329 kbps
Codec: FLAC
================================================================================


Thanks to the Original customer.