Subcategories

Lucy Crowe, Elizabeth Watts, La Nuova Musica & David Bates - F. Couperin: Leçons de Ténèbres (2016) [24/96]

Posted By: SERTiL
Lucy Crowe, Elizabeth Watts, La Nuova Musica & David Bates - F. Couperin: Leçons de Ténèbres (2016) [24/96]

Lucy Crowe, Elizabeth Watts, La Nuova Musica & David Bates - F. Couperin: Leçons de Ténèbres (2016)
FLAC (tracks) 24-bit/96 kHz | Time - 70:21 minutes | 1.22 GB
Studio Master, Official Digital Download | Artwork: Digital booklet

Music for Holy Week. François Couperin's 'Leçons de Ténèbres' (c. 1713-17), a setting of the Lamentations of Jeremiah, fused devotional expression with a dramatic performing style embodied here by sopranos Lucy Crowe and Elizabeth Watts. Two Trio Sonatas and a 'Stabat Mater' by Sébastien de Brossard round out this luminous programme.

La Nuova Musica was founded by its artistic director David Bates in 2007 whilst in residency at Snape Maltings and was hailed by BBC Radio 3 as “one of the most exciting consorts in the early music field”. They are regular contributors at Aldeburgh Music, St John’s Smith Square, London Handel Festival, Wigmore Hall and Spitalfields Music. Highlights of 2015 were a performance of 'Acis and Galatea' at SJSS which received a 5* review in The Times, describing it as “a reading that sparkled from the giddy overture to the consoling final chorus” followed by a concert performance of Cesti’s 'Orontea', where “Bates’ conducting had superb poise, and the cast was impeccable, with not a weak link anywhere” (The Guardian).

In 2016 LNM will also record Pergolesi's 'Stabat Mater' and Bach Cantatas with Lucy Crowe and Tim Mead. Concert performance highlights for 2016 include Handel’s 'Berenice' at the Göttingen Internationale Händel Festspiele; their debut at the Salzburg Festival with Bejun Mehta; and an exciting collaboration with American choreographer Zack Winokur on Purcell’s 'Dido and Aeneas' at the Brighton International Festival, with Dame Ann Murray singing the title role.

'This is a disc of much promise from a new generation of British Baroque performing talent.” (Gramophone Magazine)

“Buy this, sit back and enjoy.” (MusicWeb International)

TRACKLIST

François Couperin (1688-1733)

Trois Leçons de Ténèbres: Première Leçon
1 I. Incipit Lamentatio Jeremiae prophetae 00:41
2 II. Aleph. Quomodo sedet sola 02:16
3 III. Beth. Plorans ploravit in nocte 03:41
4 IV. Ghimel. Migravit Juda 01:49
5 V. Daleth. Viae Sion lugent 02:28
6 VI. He. Facti sunt hostes 03:07
7 VII. Jerusalem, convertere 03:36

Sébastien De Brossard (1655-1730)

8 Sonate en trio en Mi Mineur, SdB. 220 07:06

François Couperin (1688-1733)

Trois Leçons de Ténèbres: Seconde Leçon
9 I. Vau. Et egressus est 02:11
10 II. Zain. Recordata est Jerusalem 03:16
11 III. Heth. Peccatum peccavit Jerusalem 01:54
12 IV. Heth. Peccatum peccavit Jerusalem 02:47
13 V. Jerusalem, convertere 02:34

Sébastien De Brossard (1655-1730)

14 Sonate en trio en La Mineur, SdB. 223 05:04

François Couperin (1688-1733)

Trois Leçons de Ténèbres: Troisième Leçon
15 I. Jod. Manum suam misit hostis 01:39
16 II. Caph. Omnis populis ejus 01:46
17 III. Lamed. O vos omnes 02:37
18 IV. Mem. De excelso misit ignem 01:47
19 V. Nun. Vigilavit jugum 01:56
20 Jerusalem, convertere 02:09

Sébastien De Brossard (1655-1730)

21 I. Stabat mater dolorosa 01:04
22 II. Cujus animam gementem 00:54
23 III. O quam tristis 01:49
24 IV. Quae maerebat et dolebat 00:37
25 V. Quis est homo 01:19
26 VI. Pro peccatis suae gentis 00:44
27 VII. Vidit suum dulcem natum 01:20
28 VIII. Eia mater, fons amoris 01:36
29 IX. Sancta Mater, istud agas 01:00
30 X. Tui nati vulnerati 00:58
31 XI. Virgo virginum praeclara 01:38
32 XII. Fac ut portem Christi mortem 02:56

PERSONNEL
Lucy Crowe, soprano
Elizabeth Watts, soprano
La Nuova Musica
David Bates, direction, organ

foobar2000 1.3.7 / Dynamic Range Meter 1.1.1
log date: 2017-09-25 15:12:48

––––––––––––––––––––––––––––––––––––––––
Analyzed: Edward Grint, David Bates and La Nuova Musica / Lucy Crowe, Elizabeth Watts, La Nuova Musica & David Bates (1)
Elizabeth Watts, David Bates and La Nuova Musica / Lucy Crowe, Elizabeth Watts, La Nuova Musica & David Bates (2-5)
Elizabeth Watts, La Nuova Musica and David Bates / Lucy Crowe, Elizabeth Watts, La Nuova Musica & David Bates (6)
James Arthur, David Bates and La Nuova Musica / Lucy Crowe, Elizabeth Watts, La Nuova Musica & David Bates (7)
La Nuova Musica and David Bates / Lucy Crowe, Elizabeth Watts, La Nuova Musica & David Bates (8-19)
Lucy Crowe, David Bates and La Nuova Musica / Lucy Crowe, Elizabeth Watts, La Nuova Musica & David Bates (20-22)
Lucy Crowe, David Bates, Elizabeth Watts and La Nuova Musica / Lucy Crowe, Elizabeth Watts, La Nuova Musica & David Bates (23-24)
Lucy Crowe, Elizabeth Watts, La Nuova Musica and David Bates / Lucy Crowe, Elizabeth Watts, La Nuova Musica & David Bates (25)
Lucy Crowe, La Nuova Musica and David Bates / Lucy Crowe, Elizabeth Watts, La Nuova Musica & David Bates (26-29)
Lucy Crowe, La Nuova Musica, David Bates and Elizabeth Watts / Lucy Crowe, Elizabeth Watts, La Nuova Musica & David Bates (30-31)
Lucy Crowe, La Nuova Musica, Elizabeth Watts and David Bates / Lucy Crowe, Elizabeth Watts, La Nuova Musica & David Bates (32)
––––––––––––––––––––––––––––––––––––––––

DR Peak RMS Duration Track
––––––––––––––––––––––––––––––––––––––––
DR13 -6.15 dB -21.32 dB 0:59 30-X. Tui nati vulnerati
DR13 -1.00 dB -17.95 dB 3:16 10-II. Zain. Recordata est Jerusalem
DR12 -1.13 dB -20.51 dB 1:54 11-III. Heth. Peccatum peccavit Jerusalem
DR14 -0.94 dB -19.60 dB 2:48 12-IV. Heth. Peccatum peccavit Jerusalem
DR12 -0.91 dB -18.01 dB 2:35 13-V. Jerusalem, convertere
DR12 -2.25 dB -19.14 dB 2:11 09-I. Vau. Et egressus est
DR12 -5.80 dB -22.09 dB 0:54 22-II. Cujus animam gementem
DR12 -6.38 dB -22.22 dB 7:07 08-Sonate en trio en Mi Mineur, SdB. 220
DR11 -7.60 dB -22.95 dB 5:04 14-Sonate en trio en La Mineur, SdB. 223
DR11 -1.11 dB -15.61 dB 1:05 21-I. Stabat mater dolorosa
DR11 -3.13 dB -18.08 dB 1:49 23-III. O quam tristis
DR12 -3.80 dB -21.22 dB 0:37 24-IV. Quae maerebat et dolebat
DR11 -1.28 dB -17.26 dB 1:19 25-V. Quis est homo
DR13 -1.09 dB -18.66 dB 0:45 26-VI. Pro peccatis suae gentis
DR11 -3.19 dB -18.46 dB 1:21 27-VII. Vidit suum dulcem natum
DR14 -5.99 dB -24.35 dB 1:37 28-VIII. Eia Mater, Fons Amoris
DR11 -0.99 dB -16.68 dB 1:01 29-IX. Sancta Mater, istud agas
DR12 -1.28 dB -17.65 dB 1:38 31-XI. Virgo virginum praeclara
DR12 -1.10 dB -18.70 dB 2:57 32-XII. Fac ut portem Christi mortem
DR11 -5.76 dB -19.97 dB 0:41 01-I. Incipit Lamentatio Jeremiae prophetae
DR14 -1.07 dB -21.67 dB 3:41 03-III. Beth. Plorans ploravit in nocte
DR14 -2.18 dB -21.56 dB 3:08 06-VI. He. Facti sunt hostes
DR12 -0.94 dB -17.47 dB 1:46 16-II. Caph. Omnis populis ejus
DR12 -0.97 dB -17.73 dB 2:38 17-III. Lamed. O vos omnes
DR12 -0.92 dB -17.82 dB 1:40 15-I. Jod. Manum suam misit hostis
DR14 -1.10 dB -20.10 dB 2:16 02-II. Aleph. Quomodo sedet sola
DR14 -3.23 dB -22.35 dB 1:50 04-IV. Ghimel. Migravit Juda
DR13 -0.98 dB -19.01 dB 2:28 05-V. Daleth. Viae Sion lugent
DR12 -4.29 dB -22.37 dB 3:36 07-VII. Jerusalem, convertere
DR13 -0.98 dB -19.77 dB 1:56 19-V. Nun. Vigilavit jugum
DR10 -0.94 dB -16.03 dB 2:12 20-Jerusalem, convertere
DR12 -0.94 dB -18.19 dB 1:48 18-IV. Mem. De excelso misit ignem
––––––––––––––––––––––––––––––––––––––––

Number of tracks: 32
Official DR value: DR12

Samplerate: 96000 Hz
Channels: 2
Bits per sample: 24
Bitrate: 2459 kbps
Codec: FLAC
================================================================================


Thanks to the Original customer.