Daniel Pemberton - Molly's Game (Original Motion Picture Soundtrack) (2018) [Official Digital Download]

Posted By: Pisulik
Daniel Pemberton - Molly's Game (Original Motion Picture Soundtrack) (2018) [Official Digital Download]

Daniel Pemberton - Molly's Game (Original Motion Picture Soundtrack) (2018)
FLAC (tracks) 24-bit/48 kHz | Time - 55:10 minutes | 601 MB
Studio Master, Official Digital Download | Artwork: Front cover

Director Aaron Sorkin tells the true story of an Olympic-class skier who ran the world’s most exclusive high-stakes poker game and became an FBI target. Her players included movie stars, business titans and unbeknownst to her, the Russian mob. The soundtrack for Molly’s Game will be composed by Daniel Pemberton who recently put stones and even Chinese chopsticks to usage in his score for Guy Ritchie’s King Arthur.

"It was great working with Aaron - I still can't believe this is his first time as a director - he was so assured, enthusiastic and supportive it felt like he'd been doing it all his life," said Pemberton.

"When you're directing a film for the first time and I would imagine when you're directing a film for the hundred and first time you don't want the top people involved to be soldiers who'll carry out your instructions. You want them to be artists who are better than your instructions. At an early meeting with Daniel in Toronto, where much of Molly's Game was shot, I told the extraordinary composer that I wasn't hearing electronic music in the score. Instead I wanted strings, reeds and brass an orchestral sound. Daniel nodded, smiled his thousand-watt smile and said, 'There will be electronic music,'" Sorkin joked. "Daniel became nothing less than a co-author of the film. And I'll be forever grateful that he followed his instincts instead of my instructions."

Speaking to the dynamic score he crafted for this engaging true-life thriller, composer Daniel Pemberton said, "I wanted to write it so it felt a bit more like a bunch of different bands had written the score than rather a solitary film composer. I wanted it to feel like something that came from inside Molly's world, the kind of music she would listen to or be surrounded by. It needed to feel contemporary, not like a traditional film score. But at the same time Aaron always wanted to give her a theme, one that would grow through the film into a big emotional resolution at the end, so it was important to work that into what I would do as well."

Tracklist:

01. Staring Down a Mountain
02. Raided
03. Molly's Journey
04. Set It Up
05. Play Your Hand
06. Area Codes
07. Cut the Pack
08. Red & Black
09. Pocket Kings
10. The Rake
11. House of Cards
12. It Had to End
13. The Playmates
14. The Russians
15. Molly's Dream
16. Intruder
17. Scars
18. Beyond Your Means
19. Therapy Session
20. All the Beauty in the World

foobar2000 1.3.7 / Dynamic Range Meter 1.1.1
log date: 2018-01-04 15:40:03

––––––––––––––––––––––––––––––––––––––––
Analyzed: Daniel Pemberton / Molly's Game (Original Motion Picture Soundtrack)
––––––––––––––––––––––––––––––––––––––––

DR Peak RMS Duration Track
––––––––––––––––––––––––––––––––––––––––
DR7 -1.10 dB -11.62 dB 3:56 01-Staring Down a Mountain
DR10 -1.10 dB -13.92 dB 2:15 02-Raided
DR9 -1.10 dB -13.73 dB 1:56 03-Molly's Journey
DR7 -1.10 dB -11.51 dB 2:46 04-Set It Up
DR6 -1.10 dB -9.96 dB 2:46 05-Play Your Hand
DR5 -1.50 dB -9.74 dB 2:32 06-Area Codes
DR9 -1.50 dB -11.21 dB 2:55 07-Cut the Pack
DR6 -1.40 dB -9.56 dB 2:40 08-Red & Black
DR9 -1.10 dB -12.38 dB 1:51 09-Pocket Kings
DR8 -1.40 dB -11.74 dB 2:12 10-The Rake
DR7 -1.10 dB -10.59 dB 3:57 11-House of Cards
DR8 -1.10 dB -14.27 dB 2:25 12-It Had to End
DR8 -1.10 dB -11.02 dB 2:20 13-The Playmates
DR7 -1.10 dB -10.27 dB 3:23 14-The Russians
DR11 -7.82 dB -25.76 dB 1:06 15-Molly's Dream
DR8 -1.10 dB -11.95 dB 2:54 16-Intruder
DR10 -1.10 dB -15.54 dB 3:02 17-Scars
DR8 -1.10 dB -11.24 dB 2:24 18-Beyond Your Means
DR11 -1.10 dB -17.61 dB 2:44 19-Therapy Session
DR5 -1.10 dB -9.38 dB 5:08 20-All the Beauty in the World
––––––––––––––––––––––––––––––––––––––––

Number of tracks: 20
Official DR value: DR8

Samplerate: 48000 Hz
Channels: 2
Bits per sample: 24
Bitrate: 1552 kbps
Codec: FLAC
================================================================================


All thanks go to the original releaser