Danish String Quartet - Last Leaf (2017) [Official Digital Download 24/96]

Posted By: SERTiL
Danish String Quartet - Last Leaf (2017) [Official Digital Download 24/96]

Danish String Quartet - Last Leaf (2017)
FLAC (tracks) 24-bit/96 kHz | Time - 48:06 minutes | 862 MB
Studio Master, Official Digital Download | Artwork: Digital booklet

They are widely recognised as the most exciting young string quartet of the present moment, bringing new insights to contemporary composition and core classical repertoire. In parallel, they have also made surprising and impressive forays into the world of Nordic folk music. Their 2014 album Wood Works (Dacapo Records) was a left-field hit, and audiences around the world have been delighted by concert performances of the music. Now the Danish String Quartet bring their folk project to ECM with a stirring new recording. Fästan takes off from an unusual Christmas hymn, “Now found is the fairest of roses”, published in 1732 by Danish theologian and poet H.A. Brorson. The hymn is set to a mysterious, dark melody: Brorson had chosen an old Lutheran funeral choral to accompany his Christmas hymn, elegantly showing how life and death are always connected. “From here we embark on a travel through the rich fauna of Nordic folk melodies until returning to Brorson in the end,” say the DSQ. “It is a journey that could have been made in many different ways, but we believe that we returned with some nice souvenirs. In these old melodies, we find immense beauty and depth, and we can't help but sing them through the medium of our string quartet. Brorson found the fairest of roses, we found a bunch of amazing tunes – and we hope you will enjoy what we did to them.”

TRACKLIST
1 Despair Not, O Heart (Arr. For String Quartet) 01:21
2 Shore 02:51
3 Polska From Dorotea (Arr. For String Quartet) 03:04
4 Tjønneblomen (Arr. For String Quartet) 03:52
5 Minuet No. 60 (Arr. For String Quartet) 02:40
6 Æ Rømeser (Arr. For String Quartet) 04:02
7 Intermezzo 01:23
8 Shine You No More 03:38
9 Drømte mig en drøm (Arr. For String Quartet) 03:46
10 Stædelil (Arr. For String Quartet) 02:45
11 Naja's Waltz 03:19
12 Unst Boat Song (Arr. For String Quartet) 04:48
13 Fastän (Arr. For String Quartet) 02:43
14 Hur var du i aftes så sildig (Arr. For String Quartet) 02:00
15 The Dromer (Arr. For String Quartet) 03:01
16 Now Found Is The Fairest Of Roses (Arr. For String Quartet) 03:01

foobar2000 1.3.7 / Dynamic Range Meter 1.1.1
log date: 2017-10-12 22:15:02

––––––––––––––––––––––––––––––––––––––––
Analyzed: Danish String Quartet / Last Leaf
––––––––––––––––––––––––––––––––––––––––

DR Peak RMS Duration Track
––––––––––––––––––––––––––––––––––––––––
DR8 -16.14 dB -27.76 dB 1:21 01-Despair Not, O Heart
DR12 -3.10 dB -20.96 dB 2:51 02-Shore
DR14 -0.10 dB -18.06 dB 3:04 03-Polska From Dorotea
DR13 -1.93 dB -20.02 dB 3:52 04-Tjønneblomen
DR13 -3.18 dB -21.41 dB 2:40 05-Minuet No. 60
DR14 -3.89 dB -22.76 dB 4:02 06-Æ Rømeser
DR10 -15.65 dB -32.06 dB 1:23 07-Intermezzo
DR13 -0.10 dB -18.72 dB 3:38 08-Shine You No More
DR12 -2.04 dB -20.16 dB 3:46 09-Drømte mig en drøm
DR13 -0.64 dB -18.54 dB 2:45 10-Stædelil
DR12 -2.46 dB -20.72 dB 3:19 11-Naja's Waltz
DR11 -4.49 dB -21.97 dB 4:48 12-Unst Boat Song
DR11 -3.67 dB -19.10 dB 2:43 13-Fastän
DR13 -7.57 dB -25.53 dB 2:00 14-Hur var du i aftes så sildig
DR12 -1.31 dB -17.20 dB 3:01 15-The Dromer
DR12 -11.96 dB -32.25 dB 3:01 16-Now Found Is The Fairest Of Roses
––––––––––––––––––––––––––––––––––––––––

Number of tracks: 16
Official DR value: DR12

Samplerate: 96000 Hz
Channels: 2
Bits per sample: 24
Bitrate: 2196 kbps
Codec: FLAC
================================================================================


Thanks to the Original customer.