Howard Griffiths & Münchener Kammerorchester - Danzi: Ouverture, Cello Concerto & Piano Concerto (2018) [24/44]

Posted By: SERTiL
Howard Griffiths & Münchener Kammerorchester - Danzi: Ouverture, Cello Concerto & Piano Concerto (2018) [24/44]

Howard Griffiths & Münchener Kammerorchester - Danzi: Ouverture, Cello Concerto & Piano Concerto (2018)
FLAC (tracks) 24-bit/44.1 kHz | Time - 58:34 minutes | 524 MB
Studio Master, Official Digital Download | Artwork: Digital Booklet

The stunning new album from Howard Griffiths and the Munich Chamber Orchestra. Compositions by Franz Danzi, Mozart's contemporary, acclaimed composer of early classical music. The Cello Concerto in E minor is performed by young French cello virtuoso Aurélien Pascal. The Paris musician, born in 1994, began his musical education at the Paris Conservatory and took masterclasses with János Starker. The second soloist on this album is Armenian pianist Nareh Arghamanyan, who won the famous Tchaikovsky Competition in Moscow sensationally at just 19 years old and at the young age of 15, was admitted to the Vienna University of Music as the youngest student. The rarely performed Overture in D major completes this interesting Danzi programme; a well balanced collection of repertoire rarities.

Tracklist:

Franz Danzi (1763-1826)

01. Piano Concerto in E-Flat Major, Op. 4, P. 229: I. Allegro
02. Piano Concerto in E-Flat Major, Op. 4, P. 229: Piano Concerto in E-Flat Major, Op. 4, P. 229: II. Andante moderato
03. Piano Concerto in E-Flat Major, Op. 4, P. 229: Piano Concerto in E-Flat Major, Op. 4, P. 229: III. Allegretto
04. Overture in D Major, P. 228: I. Allegro
05. Overture in D Major, P. 228: Overture in D Major, P. 228: II. Andantino
06. Overture in D Major, P. 228: III. Allegretto ma non troppo
07. Cello Concerto in E Minor, P. 243: I. Allegro
08. Cello Concerto in E Minor, P. 243: Cello Concerto in E Minor, P. 243: II. Larghetto
09. Cello Concerto in E Minor, P. 243: III. Allegretto

Personnel:
Howard Griffiths (conductor)
Aurélien Pascal (violoncello)
Munich Chamber Orchestra
Nareh Argamanyan (piano)

foobar2000 1.3.7 / Dynamic Range Meter 1.1.1
log date: 2018-01-12 13:26:16

––––––––––––––––––––––––––––––––––––––––
Analyzed: Howard Griffiths & Münchener Kammerorchester / Danzi: Ouverture, Cello Concerto & Piano Concerto
––––––––––––––––––––––––––––––––––––––––

DR Peak RMS Duration Track
––––––––––––––––––––––––––––––––––––––––
DR13 -2.15 dB -19.45 dB 12:42 01-Piano Concerto in E-Flat Major, Op. 4, P. 229: I. Allegro
DR15 -2.26 dB -22.82 dB 6:44 02-Piano Concerto in E-Flat Major, Op. 4, P. 229: Piano Concerto in E-Flat Major, Op. 4, P. 229: II. Andante moderato
DR13 -3.49 dB -20.61 dB 7:59 03-Piano Concerto in E-Flat Major, Op. 4, P. 229: Piano Concerto in E-Flat Major, Op. 4, P. 229: III. Allegretto
DR12 -0.40 dB -16.66 dB 2:11 04-Overture in D Major, P. 228: I. Allegro
DR12 -10.25 dB -25.88 dB 1:33 05-Overture in D Major, P. 228: Overture in D Major, P. 228: II. Andantino
DR15 -1.99 dB -22.57 dB 2:28 06-Overture in D Major, P. 228: III. Allegretto ma non troppo
DR14 -0.40 dB -20.18 dB 13:37 07-Cello Concerto in E Minor, P. 243: I. Allegro
DR14 -5.14 dB -26.11 dB 4:24 08-Cello Concerto in E Minor, P. 243: Cello Concerto in E Minor, P. 243: II. Larghetto
DR15 -1.67 dB -22.03 dB 6:59 09-Cello Concerto in E Minor, P. 243: III. Allegretto
––––––––––––––––––––––––––––––––––––––––

Number of tracks: 9
Official DR value: DR14

Samplerate: 44100 Hz
Channels: 2
Bits per sample: 24
Bitrate: 1261 kbps
Codec: FLAC
================================================================================


Thanks to the Original customer.