Les Agrémens & Guy van Waas - Dauvergne: La Vénitienne (2012) [Official Digital Download]

Posted By: SERTiL
Les Agrémens & Guy van Waas - Dauvergne: La Vénitienne (2012) [Official Digital Download]

Les Agrémens & Guy van Waas - Dauvergne: La Vénitienne (2012)
FLAC (tracks) 24-bit/44.1 kHz | Time - 115:14 minutes | 1.07 GB
Studio Master, Official Digital Download | Artwork: Digital Booklet

Dauvergne’s final operatic work follows neither of the established genres of the period, neither tragédie lyrique nor opéra-ballet. With La Vénitienne, the composer turned towards comedy.

Taking a libretto written during the reign of Louis XIV in 1705, he drew on the very best of his talent and skill and created a synthesis of everything that was modern at that time: it is as if Rameau, Pergolesi, Grétry and Mondonville had joined forces to compose this work that is by turn tragic, tender and richly comic, in which the virtuosity of the arias and the splendour of a large orchestra is blended with the piquant spirit of the Age of Enlightenment.

The elegant playing of Les Agremens conveys the opera's charms…The light-hearted plot of Venetian lovers reconciled after bizarre escapades warranted a frothy score packed with short tuneful arias ~ Gramophone Magazine March 2013

Tracklist:

Antoine Dauvergne (1713-1797)

CD1
01. La Vénitienne: Ouverture: Presto-Largo-Prestissimo
02. La Vénitienne: Acte I: Scène I: Air (Léonore): Tendres plaisirs
03. La Vénitienne: Acte I: Scène II: Récitatif (Isabelle, Léonore): Quoi ? Vous me trahissés, ingrate Léonore !
04. La Vénitienne: Acte I: Scène II: Air (Léonore): C'est dans les premiers jeux
05. La Vénitienne: Acte I: Scène II: Récitatif (Léonore): Il me parle à ces jeux – Scene III: Récitatif (Spinette, Isabelle): L'amour répond à ses souhaits
06. La Vénitienne: Acte I: Scène III: Air (Isabelle): Non, l'Amour ne veut pas que l'on goûte à la fois – Scène III: Recitatif (Isabelle): Redoublons cependant nos soins
07. La Vénitienne: Acte I: Scène IV: Air (Spinette): De mille amants en vain nous recevons les vœux-Scène IV: Prélude (Spinette): Cachons-nous
08. La Vénitienne: Acte I: Scène V: Duo (Léonore, Octave): Non, ne redoutés plus l'amour
09. La Vénitienne: Acte I: Scène V: Annonce (Léonore): D'où viennent ces concerts ?
10. La Vénitienne: Acte I: Scène VI: Air (Zerbin): Que pour Cithere, chacun vienne s'embarquer-Scène VI: Entrée, très gai
11. La Vénitienne: Acte I: Scène VI: Chœur: Donnés nous des jours fortunés
12. La Vénitienne: Acte I: Scène VI: Air, très marqué et très pointé, sans lenteur
13. La Vénitienne: Acte I: Scène VI: Air des barcarolles, très gai
14. La Vénitienne: Acte I: Scène VI: Air (Zerbin): Au plus aimable voyage
15. La Vénitienne: Acte I: Scène VI: Premier menuet-Deuxième menuet
16. La Vénitienne: Acte I: Scène VI: Premier tambourin-Deuxième tambourin
17. La Vénitienne: Acte I: Scène VI: Chœur (avec Zerbin): L'amour nous prèsse
18. La Vénitienne: Acte I: Scène VI: Contredanse, très gaiement
19. La Vénitienne: Acte I: Scène VII: Récitatif (Octave, Léonore, Zerbin, Spinette): Quoi ! Toujoûrs De L'Amour-Scène VIII: Récitatif (Octave, Zerbin): L'Ingrate !
20. La Vénitienne: Acte II: Scène I: Prélude-Scène I: Récitatif (Octave, Zerbin): Tes pas sont incertains
21. La Vénitienne: Acte II: Scène I: Air (Zerbin): Pour braver les périls
22. La Vénitienne: Acte II: Scène I: Récitatif (Octave, Zerbin): C'est m'offenser que de rien craindre
23. La Vénitienne: Acte II: Scène II: Air (Zerbin): Ciel ! Il me laîsse, il m'abandonne !
24. La Vénitienne: Acte II: Scène II: Sommeil (Zerbin): Livrons-nous au sommeil
25. La Vénitienne: Acte II: Scène III: Récitatif (Isabelle, Zerbin): J'ai su que mon amant doit se rendre en ces lieux
26. La Vénitienne: Acte II: Scène III: Air (Isabelle): Tu peux dormir, ingrat-Régnés haine, fureur
27. La Vénitienne: Acte II: Scène III: Récitatif (Zerbin, Isabelle): Ah ! Quelle est cette voix ?
28. La Vénitienne: Acte II: Scène IV: Prélude-Scène IV: Récitatif (Octave): Vous, pour qui l'avenir n'a rien d'impénétrable – Scène IV: Récitatif (Isméride, Octave, Zerbin): Vous croyés me surprendre
29. La Vénitienne: Acte II: Scène IV: Air (Isméride): O vous, qui vivés sous mes lois !-Chœur: Que tout tremble
30. La Vénitienne: Acte II: Scène IV: Air: Grave
31. La Vénitienne: Acte II: Scène IV: Récitatif (Isméride): Noir Souverain des ténébreux abîmes
32. La Vénitienne: Acte II: Scène IV: Chœur (et Isméride): Que la guerre en cent lieux répande la terreur
33. La Vénitienne: Acte II: Scène IV: Air, presto
34. La Vénitienne: Acte II: Scène IV: Récitatif (Zerbin, Isméride): Ne suis-je pas déjà dans les sombres Royaumes ?
35. La Vénitienne: Acte II: Scène IV: Air (Isabelle): Avançons !
36. La Vénitienne: Acte II: Scène IV: Chœur: Quelle horreur !
37. La Vénitienne: Acte II: Scène IV: Récitatif (Isabelle): Toi, qui m'a inspirée
38. La Vénitienne: Acte II: Scène IV: Air des devins, prestissimo
39. La Vénitienne: Acte III: Scène I: Air (Léonore): Quand je revois l'objet de mes amours
40. La Vénitienne: Acte III: Scène II: Récitatif (Octave): Vous réviés seule en ce séjour
41. La Vénitienne: Acte III: Scène II: Air (Léonore, Octave): L'amour coûte trop de soûpirs
42. La Vénitienne: Acte III: Scène II: Récitatif (Léonore, Octave): L'objet qui m'a charmé
43. La Vénitienne: Acte III: Scène III: Récitatif (Isabelle, Léonore): Je vous revois enfin
44. La Vénitienne: Acte III: Scène III: Air (Isabelle): Mon cœur brûle de mille feux – Récitatif (Isabelle): Mais si mon cœur est tendre-Air (Isabelle): Ah ! cachés à ses yeux les beautés
45. La Vénitienne: Acte III: Scène III. Récitatif (Léonore): N'êtes vous pas le seul-Air (Octave): Ah ! c'en est trop
46. La Vénitienne: Acte III: Scène III. Récitatif (Isabelle, Octave, Léonore): Calmés le transport qui vous guide
47. La Vénitienne: Acte III: Scène III. Trio (Léonore, Isabelle, Octave): Suivez l'amour, qui vous appelle
48. La Vénitienne: Acte III: Scène dernière: Air pour les masques, très gai-Chœur: Loin de nos jeux, importune sagesse
49. La Vénitienne: Acte III: Scène dernière: Air pour les Polonais
50. La Vénitienne: Acte III: Scène dernière: Premier menuet-Second menuet
51. La Vénitienne: Acte III: Scène dernière: Ariette (Isabelle): D'un infidèle enfin, j'ai rallumé la flâme
52. La Vénitienne: Acte III: Scène dernière: Première forlane-Second forlane
53. La Vénitienne: Acte III: Scène dernière: Ariette (Zerbin): Le Dieu malin, qui règne dans Cithere
54. La Vénitienne: Acte III: Scène dernière: Premier air, mouvement de chaconne
55. La Vénitienne: Acte III: Scène dernière: Ariette (Octave): Amour, couronne ta victoire
56. La Vénitienne: Acte III: Scène dernière: Pantomine pour le Tirolois, andantino
57. La Vénitienne: Acte III: Scène dernière: Contredanse

Personnel:
Les Agrémens & Choeur de Chambre de Namur
Guy Van Waas (direction)

foobar2000 1.3.7 / Dynamic Range Meter 1.1.1
log date: 2017-12-28 13:33:28

––––––––––––––––––––––––––––––––––––––––
Analyzed: Les Agrémens, Guy Van Waas, Alain Buet, Isabelle Cals / Dauvergne: La Vénitienne (1)
Les Agrémens, Guy Van Waas, Alain Buet / Dauvergne: La Vénitienne (2-8)
Les Agrémens, Guy Van Waas, Chantal Santon, Alain Buet / Dauvergne: La Vénitienne (9-10)
Les Agrémens, Guy Van Waas, Chantal Santon, Katia Velletaz / Dauvergne: La Vénitienne (11)
Les Agrémens, Guy Van Waas, Chantal Santon, Mathias Vidal, Katia Velletaz / Dauvergne: La Vénitienne (12)
Les Agrémens, Guy Van Waas, Chantal Santon / Dauvergne: La Vénitienne (13-18)
Les Agrémens, Guy Van Waas, Chœur Chambre Namur, Alain Buet / Dauvergne: La Vénitienne (19)
Les Agrémens, Guy Van Waas, Chœur Chambre Namur, Isabelle Cals / Dauvergne: La Vénitienne (20)
Les Agrémens, Guy Van Waas, Chœur Chambre Namur / Dauvergne: La Vénitienne (21-23)
Les Agrémens, Guy Van Waas, Isabelle Cals / Dauvergne: La Vénitienne (24-25)
Les Agrémens, Guy Van Waas, Kareen Durand / Dauvergne: La Vénitienne (26)
Les Agrémens, Guy Van Waas, Katia Velletaz, Chantal Santon, Mathias Vidal / Dauvergne: La Vénitienne (27)
Les Agrémens, Guy Van Waas, Katia Velletaz, Chantal Santon / Dauvergne: La Vénitienne (28)
Les Agrémens, Guy Van Waas, Katia Velletaz, Kareen Durand, Chantal Santon / Dauvergne: La Vénitienne (29)
Les Agrémens, Guy Van Waas, Katia Velletaz, Mathias Vidal / Dauvergne: La Vénitienne (30-33)
Les Agrémens, Guy Van Waas, Katia Velletaz / Dauvergne: La Vénitienne (34-37)
Les Agrémens, Guy Van Waas, Mathias Vidal, Alain Buet / Dauvergne: La Vénitienne (38-39)
Les Agrémens, Guy Van Waas, Mathias Vidal, Isabelle Cals, Alain Buet / Dauvergne: La Vénitienne (40)
Les Agrémens, Guy Van Waas, Mathias Vidal, Katia Velletaz, Alain Buet, Kareen Durand / Dauvergne: La Vénitienne (41)
Les Agrémens, Guy Van Waas, Mathias Vidal / Dauvergne: La Vénitienne (42)
Les Agrémens, Guy van Waas / Dauvergne: La Vénitienne (43-57)
––––––––––––––––––––––––––––––––––––––––

DR Peak RMS Duration Track
––––––––––––––––––––––––––––––––––––––––
DR12 -13.19 dB -33.56 dB 0:39 07-La Vénitienne: Acte II: Scène IV: Récitatif (Zerbin, Isméride): Ne suis-je pas déjà dans les sombres Royaumes ?
DR15 -5.39 dB -24.78 dB 3:40 10-La Vénitienne: Acte I: Scène VI: Air (Zerbin): Que pour Cithere, chacun vienne s'embarquer-Scène VI: Entrée, très gai
DR13 -10.57 dB -28.03 dB 1:36 14-La Vénitienne: Acte I: Scène VI: Air (Zerbin): Au plus aimable voyage
DR12 -10.58 dB -28.64 dB 0:49 21-La Vénitienne: Acte II: Scène I: Air (Zerbin): Pour braver les périls
DR19 -5.15 dB -29.65 dB 3:03 23-La Vénitienne: Acte II: Scène II: Air (Zerbin): Ciel ! Il me laîsse, il m'abandonne !
DR14 -15.30 dB -34.32 dB 2:36 24-La Vénitienne: Acte II: Scène II: Sommeil (Zerbin): Livrons-nous au sommeil
DR15 -5.91 dB -27.74 dB 0:23 13-La Vénitienne: Acte III: Scène II: Récitatif (Octave): Vous réviés seule en ce séjour
DR15 -5.25 dB -25.73 dB 3:09 26-La Vénitienne: Acte III: Scène dernière: Ariette (Zerbin): Le Dieu malin, qui règne dans Cithere
DR8 -8.10 dB -31.99 dB 0:25 25-La Vénitienne: Acte II: Scène III: Récitatif (Isabelle, Zerbin): J'ai su que mon amant doit se rendre en ces lieux
DR15 -8.55 dB -30.23 dB 2:02 27-La Vénitienne: Acte II: Scène III: Récitatif (Zerbin, Isabelle): Ah ! Quelle est cette voix ?
DR14 -4.25 dB -24.86 dB 1:07 16-La Vénitienne: Acte III: Scène III: Récitatif (Isabelle, Léonore): Je vous revois enfin
DR18 -1.00 dB -25.48 dB 3:13 19-La Vénitienne: Acte III: Scène III. Récitatif (Isabelle, Octave, Léonore): Calmés le transport qui vous guide
DR14 -6.80 dB -28.21 dB 1:42 06-La Vénitienne: Acte I: Scène III: Air (Isabelle): Non, l'Amour ne veut pas que l'on goûte à la fois – Scène III: Recitatif (Isabelle): Redoublons cependant nos soins
DR13 -6.98 dB -25.80 dB 1:58 26-La Vénitienne: Acte II: Scène III: Air (Isabelle): Tu peux dormir, ingrat-Régnés haine, fureur
DR12 -8.27 dB -28.65 dB 1:04 08-La Vénitienne: Acte II: Scène IV: Air (Isabelle): Avançons !
DR9 -5.96 dB -25.35 dB 0:20 10-La Vénitienne: Acte II: Scène IV: Récitatif (Isabelle): Toi, qui m'a inspirée
DR14 -3.85 dB -23.92 dB 1:52 17-La Vénitienne: Acte III: Scène III: Air (Isabelle): Mon cœur brûle de mille feux – Récitatif (Isabelle): Mais si mon cœur est tendre-Air (Isabelle)
DR14 -5.67 dB -25.69 dB 3:15 24-La Vénitienne: Acte III: Scène dernière: Ariette (Isabelle): D'un infidèle enfin, j'ai rallumé la flâme
DR14 -4.14 dB -23.04 dB 2:02 17-La Vénitienne: Acte I: Scène VI: Chœur (avec Zerbin): L'amour nous prèsse
DR11 -3.08 dB -19.68 dB 1:45 05-La Vénitienne: Acte II: Scène IV: Chœur (et Isméride): Que la guerre en cent lieux répande la terreur
DR13 -6.39 dB -22.66 dB 2:56 11-La Vénitienne: Acte I: Scène VI: Chœur: Donnés nous des jours fortunés
DR11 -5.31 dB -20.44 dB 0:16 09-La Vénitienne: Acte II: Scène IV: Chœur: Quelle horreur !
DR14 -2.69 dB -21.78 dB 3:20 21-La Vénitienne: Acte III: Scène dernière: Air pour les masques, très gai-Chœur: Loin de nos jeux, importune sagesse
DR12 -3.85 dB -21.45 dB 1:54 02-La Vénitienne: Acte II: Scène IV: Air (Isméride): O vous, qui vivés sous mes lois !-Chœur: Que tout tremble
DR12 -4.79 dB -22.12 dB 0:40 04-La Vénitienne: Acte II: Scène IV: Récitatif (Isméride): Noir Souverain des ténébreux abîmes
DR13 -9.51 dB -28.20 dB 3:38 07-La Vénitienne: Acte I: Scène IV: Air (Spinette): De mille amants en vain nous recevons les vœux-Scène IV: Prélude (Spinette): Cachons-nous
DR13 -2.65 dB -21.97 dB 2:19 20-La Vénitienne: Acte III: Scène III. Trio (Léonore, Isabelle, Octave): Suivez l'amour, qui vous appelle
DR14 -8.23 dB -27.19 dB 1:08 03-La Vénitienne: Acte I: Scène II: Récitatif (Isabelle, Léonore): Quoi ? Vous me trahissés, ingrate Léonore !
DR15 -8.56 dB -30.44 dB 1:35 05-La Vénitienne: Acte I: Scène II: Récitatif (Léonore): Il me parle à ces jeux – Scene III: Récitatif (Spinette, Isabelle): L'amour répond à ses souhaits
DR15 -6.72 dB -25.64 dB 2:56 08-La Vénitienne: Acte I: Scène V: Duo (Léonore, Octave): Non, ne redoutés plus l'amour
DR14 -12.55 dB -30.09 dB 1:46 14-La Vénitienne: Acte III: Scène II: Air (Léonore, Octave): L'amour coûte trop de soûpirs
DR13 -6.50 dB -26.85 dB 0:38 15-La Vénitienne: Acte III: Scène II: Récitatif (Léonore, Octave): L'objet qui m'a charmé
DR14 -5.03 dB -23.68 dB 1:11 18-La Vénitienne: Acte III: Scène III. Récitatif (Léonore): N'êtes vous pas le seul-Air (Octave): Ah ! c'en est trop
DR16 -3.01 dB -25.14 dB 3:04 02-La Vénitienne: Acte I: Scène I: Air (Léonore): Tendres plaisirs
DR14 -8.24 dB -27.04 dB 0:49 04-La Vénitienne: Acte I: Scène II: Air (Léonore): C'est dans les premiers jeux
DR12 -15.17 dB -34.34 dB 0:26 09-La Vénitienne: Acte I: Scène V: Annonce (Léonore): D'où viennent ces concerts ?
DR14 -1.22 dB -23.51 dB 3:14 12-La Vénitienne: Acte III: Scène I: Air (Léonore): Quand je revois l'objet de mes amours
DR12 -8.13 dB -25.37 dB 1:00 20-La Vénitienne: Acte II: Scène I: Prélude-Scène I: Récitatif (Octave, Zerbin): Tes pas sont incertains
DR16 -10.34 dB -30.59 dB 0:46 22-La Vénitienne: Acte II: Scène I: Récitatif (Octave, Zerbin): C'est m'offenser que de rien craindre
DR15 -4.98 dB -25.39 dB 3:01 01-La Vénitienne: Acte II: Scène IV: Prélude-Scène IV: Récitatif (Octave): Vous, pour qui l'avenir n'a rien d'impénétrable – Scène IV: Récitatif (Isméride, Octave, Zerbin)
DR17 -9.68 dB -30.38 dB 0:55 19-La Vénitienne: Acte I: Scène VII: Récitatif (Octave, Léonore, Zerbin, Spinette): Quoi ! Toujoûrs De L'Amour-Scène VIII: Récitatif (Octave, Zerbin): L'Ingrate !
DR15 -4.12 dB -23.80 dB 3:13 28-La Vénitienne: Acte III: Scène dernière: Ariette (Octave): Amour, couronne ta victoire
DR13 -8.10 dB -26.75 dB 5:24 01-La Vénitienne: Ouverture: Presto-Largo-Prestissimo
DR12 -13.89 dB -29.23 dB 1:40 12-La Vénitienne: Acte I: Scène VI: Air, très marqué et très pointé, sans lenteur
DR12 -12.49 dB -29.71 dB 2:28 13-La Vénitienne: Acte I: Scène VI: Air des barcarolles, très gai
DR13 -9.73 dB -27.33 dB 3:49 15-La Vénitienne: Acte I: Scène VI: Premier menuet-Deuxième menuet
DR13 -12.79 dB -29.32 dB 1:42 16-La Vénitienne: Acte I: Scène VI: Premier tambourin-Deuxième tambourin
DR13 -11.87 dB -29.11 dB 2:04 18-La Vénitienne: Acte I: Scène VI: Contredanse, très gaiement
DR13 -7.45 dB -23.86 dB 2:31 03-La Vénitienne: Acte II: Scène IV: Air: Grave
DR13 -11.97 dB -28.66 dB 1:20 06-La Vénitienne: Acte II: Scène IV: Air, presto
DR13 -10.65 dB -26.59 dB 2:14 11-La Vénitienne: Acte II: Scène IV: Air des devins, prestissimo
DR13 -8.80 dB -24.94 dB 2:30 22-La Vénitienne: Acte III: Scène dernière: Air pour les Polonais
DR11 -13.33 dB -28.58 dB 2:13 23-La Vénitienne: Acte III: Scène dernière: Premier menuet-Second menuet
DR12 -14.67 dB -31.45 dB 3:41 25-La Vénitienne: Acte III: Scène dernière: Première forlane-Second forlane
DR12 -12.26 dB -29.20 dB 2:50 27-La Vénitienne: Acte III: Scène dernière: Premier air, mouvement de chaconne
DR11 -6.60 dB -20.32 dB 1:30 29-La Vénitienne: Acte III: Scène dernière: Pantomine pour le Tirolois, andantino
DR12 -9.24 dB -26.55 dB 2:17 30-La Vénitienne: Acte III: Scène dernière: Contredanse
––––––––––––––––––––––––––––––––––––––––

Number of tracks: 57
Official DR value: DR13

Samplerate: 44100 Hz
Channels: 2
Bits per sample: 24
Bitrate: 1334 kbps
Codec: FLAC
================================================================================


Thanks to the Original customer.