David Yazbek - The Band's Visit (Original Broadway Cast Recording) (2017) [Official Digital Download]

Posted By: pyatak
David Yazbek - The Band's Visit (Original Broadway Cast Recording) (2017) [Official Digital Download]

David Yazbek - The Band's Visit (Original Broadway Cast Recording) (2017) [Official Digital Download]
FLAC (tracks) 24-bit/48 kHz | Front Cover | Time - 42:28 minutes | 463 MB
Soundtrack | Label: Ghostlight Records, Official Digital Download

After a mix-up at the border, an Egyptian Police Band is sent to a remote village in the middle of the Israeli desert. With no bus until morning and no hotel in sight, these unlikely travelers are taken in by the locals. Under the spell of the desert sky, their lives become intertwined in the most unexpected ways.THE BAND’S VISIT celebrates the deeply human ways music, longing and laughter can connect us all.

TRACKLIST

1. The Band's Visit Original Broadway Band - Overture
2. The Band's Visit Original Broadway Company - Waiting
3. Katrina Lenk, John Cariani & Etai Benson - Welcome to Nowhere
4. Katrina Lenk - It Is What It Is
5. Andrew Polk, George Abud, John Cariani & Alok Tewari - The Beat of Your Heart
6. The Band's Visit Original Broadway Band - Soraya
7. Katrina Lenk - Omar Sharif
8. The Band's Visit Original Broadway Band - Haj-Butrus
9. Etai Benson - Papi Hears the Ocean
10. Ari'el Stachel & Etai Benson - Haled's Song About Love
11. Katrina Lenk & Tony Shalhoub - The Park
12. Tony Shalhoub - Itgara
13. Katrina Lenk & Tony Shalhoub - Something Different
14. John Cariani & George Abud - Itzik's Lullaby
15. Katrina Lenk - Something Different (Reprise)
16. Adam Kantor & The Band's Visit Original Broadway Company - Answer Me
17. The Band's Visit Original Broadway Band - The Concert
18. The Band's Visit Original Broadway Band - Afifi (Bonus Track)

foobar2000 1.3.16 / Dynamic Range Meter 1.1.1
log date: 2017-12-15 20:54:52

––––––––––––––––––––––––––––––––––––––––
Analyzed: Adam Kantor & The Band's Visit Original Broadway Company / The Band's Visit (Original Broadway Cast Recording) (1)
Andrew Polk, George Abud, John Cariani & Alok Tewari / The Band's Visit (Original Broadway Cast Recording) (2)
Ari'el Stachel & Etai Benson / The Band's Visit (Original Broadway Cast Recording) (3)
Etai Benson / The Band's Visit (Original Broadway Cast Recording) (4)
John Cariani & George Abud / The Band's Visit (Original Broadway Cast Recording) (5)
Katrina Lenk & Tony Shalhoub / The Band's Visit (Original Broadway Cast Recording) (6-7)
Katrina Lenk, John Cariani & Etai Benson / The Band's Visit (Original Broadway Cast Recording) (8)
Katrina Lenk / The Band's Visit (Original Broadway Cast Recording) (9-11)
The Band's Visit Original Broadway Band / The Band's Visit (Original Broadway Cast Recording) (12-16)
The Band's Visit Original Broadway Company / The Band's Visit (Original Broadway Cast Recording) (17)
Tony Shalhoub / The Band's Visit (Original Broadway Cast Recording) (18)
––––––––––––––––––––––––––––––––––––––––

DR Peak RMS Duration Track
––––––––––––––––––––––––––––––––––––––––
DR9 0.00 dB -13.26 dB 4:13 16-Answer Me
DR10 0.00 dB -12.65 dB 3:08 05-The Beat of Your Heart
DR10 0.00 dB -14.48 dB 3:24 10-Haled's Song About Love
DR10 0.00 dB -14.26 dB 2:59 09-Papi Hears the Ocean
DR12 -2.03 dB -18.20 dB 2:45 14-Itzik's Lullaby
DR13 -2.70 dB -21.42 dB 2:14 11-The Park
DR7 0.00 dB -11.21 dB 3:19 13-Something Different
DR8 0.00 dB -10.33 dB 2:16 03-Welcome to Nowhere
DR13 0.00 dB -15.38 dB 1:07 04-It Is What It Is
DR8 -1.08 dB -12.21 dB 3:25 07-Omar Sharif
DR7 -0.03 dB -11.90 dB 0:52 15-Something Different (Reprise)
DR9 0.00 dB -10.57 dB 1:17 01-Overture
DR14 -0.14 dB -16.52 dB 1:11 06-Soraya
DR11 0.00 dB -12.25 dB 2:06 08-Haj-Butrus
DR9 0.00 dB -11.93 dB 2:15 17-The Concert
DR9 -2.86 dB -14.46 dB 2:23 18-Afifi (Bonus Track)
DR9 -0.05 dB -11.74 dB 2:43 02-Waiting
DR12 -4.07 dB -22.79 dB 1:00 12-Itgara
––––––––––––––––––––––––––––––––––––––––

Number of tracks: 18
Official DR value: DR10

Samplerate: 48000 Hz
Channels: 2
Bits per sample: 24
Bitrate: 1215 kbps
Codec: FLAC
================================================================================



Thanks to the Original customer.