Stephen Hough - Debussy: Piano Music (2018) [Official Digital Download 24/96]

Posted By: SERTiL
Stephen Hough - Debussy: Piano Music (2018) [Official Digital Download 24/96]

Stephen Hough - Debussy: Piano Music (2018)
FLAC (tracks) 24-bit/96 kHz | Time - 69:18 minutes | 1.12 GB
Studio Master, Official Digital Download | Artwork: Digital Booklet

Any new recording from Stephen Hough is a keenly awaited musical event. Here his customary scintillating technique and imaginative intelligence (The Guardian) are deployed in the service of an all-Debussy recital which sets the bar high at this, the start of the composers centenary year.

A well-balanced selection embraces most of Debussy's larger works for solo piano outside the two books of Préludes and the Études. The triptych of Estampes sets the tone with clear, atmospheric playing, given an extra warmth in Hyperion's perfectly judged recording. –Financial Times, January'17

Tracklist:

Claude Debussy (1862-1918)

1 Estampes L108: Pagodes
2 Estampes L108: La soirée dans Grenade
3 Estampes L108: Jardins sous la pluie
4 Images I L105: Reflets dans l'eau
5 Images I L105: Hommage à Rameau
6 Images I L105: Mouvement
7 Images II L120: Cloches à travers les feuilles
8 Images II L120: Et la lune descend sur le temple qui fut
9 Images II L120: Poissons d'or
10 Children's Corner L119: Doctor Gradus ad Parnassum
11 Children's Corner L119: Jimbo's lullaby
12 Children's Corner L119: Serenade for the doll
13 Children's Corner L119: The snow is dancing
14 Children's Corner L119: The little shepherd
15 Children's Corner L119: Golliwogg's cake-walk
16 La plus que lente L128
17 L'isle joyeuse L109

Personnel:
Stephen Hough (piano)

foobar2000 1.3.7 / Dynamic Range Meter 1.1.1
log date: 2018-01-14 13:42:31

––––––––––––––––––––––––––––––––––––––––
Analyzed: Stephen Hough / Debussy: Piano Music
––––––––––––––––––––––––––––––––––––––––

DR Peak RMS Duration Track
––––––––––––––––––––––––––––––––––––––––
DR14 -2.37 dB -23.62 dB 5:25 01-Debussy: Estampes, L108 - 1: Pagodes
DR16 -1.23 dB -26.40 dB 5:26 02-Debussy: Estampes, L108 - 2: La soirée dans Grenade
DR13 -2.48 dB -20.50 dB 3:36 03-Debussy: Estampes, L108 - 3: Jardins sous la pluie
DR15 -0.50 dB -22.93 dB 4:57 04-Debussy: Images I, L105 - 1: Reflets dans l'eau
DR16 -0.26 dB -22.75 dB 6:25 05-Debussy: Images I, L105 - 2: Hommage à Rameau
DR12 -0.60 dB -18.47 dB 3:28 06-Debussy: Images I, L105 - 3: Mouvement
DR15 -2.99 dB -24.71 dB 4:06 07-Debussy: Images II, L120 - 1: Cloches à travers les feuilles
DR14 -12.99 dB -32.25 dB 5:15 08-Debussy: Images II, L120 - 2: Et la lune descend sur le temple qui fut
DR14 -1.65 dB -20.52 dB 4:02 09-Debussy: Images II, L120 - 3: Poissons d'or
DR12 -5.68 dB -23.29 dB 2:23 10-Debussy: Children's Corner, L119 - 1: Doctor Gradus ad Parnassum
DR12 -9.55 dB -31.07 dB 2:48 11-Debussy: Children's Corner, L119 - 2: Jimbo's lullaby
DR14 -8.70 dB -28.71 dB 2:38 12-Debussy: Children's Corner, L119 - 3: Serenade for the doll
DR16 -5.73 dB -28.29 dB 2:40 13-Debussy: Children's Corner, L119 - 4: The snow is dancing
DR13 -7.77 dB -31.58 dB 2:22 14-Debussy: Children's Corner, L119 - 5: The little shepherd
DR16 -3.54 dB -24.64 dB 3:02 15-Debussy: Children's Corner, L119 - 6: Golliwogg's cake-walk
DR14 -5.08 dB -26.51 dB 4:18 16-Debussy: La plus que lente, L128
DR13 -0.26 dB -19.38 dB 6:35 17-Debussy: L'isle joyeuse, L109
––––––––––––––––––––––––––––––––––––––––

Number of tracks: 17
Official DR value: DR14

Samplerate: 96000 Hz
Channels: 2
Bits per sample: 24
Bitrate: 2344 kbps
Codec: FLAC
================================================================================


Thanks to the Original customer.