Diana Ross - The Boss (1979/2016) [TR24][OF]

Posted By: SERTiL
Diana Ross - The Boss (1979/2016) [TR24][OF]

Diana Ross - The Boss
Soul, Disco, Pop | FLAC (tracks) 24-bit/192 kHz | 35:42 min | 1.50 GB | Front Cover
Label: Motown Records | Tracks: 08 | Rls.date: 1979/2016

The Boss is the ninth solo studio album released by Diana Ross. Released on the Motown records label. The Boss marked the return of Diana Ross to Top 40 radio thanks to the title track. It was certified a Gold record by the RIAA in late 90's.

TRACKLIST
1. No One Gets The Prize 04:41
2. I Ain't Been Licked 04:06
3. All For One 04:18
4. The Boss 03:58
5. Once In The Morning 04:51
6. It's My House 04:32
7. Sparkle 05:21
8. I'm In The World 03:59

BAND
Diana Ross, lead vocals
Michael Brecker, saxophone
Rob Mounsey, horn & string arrangements
Paul Riser, horn & string arranger
Eric Gale, guitar
Ray Chew, keyboards
Anthony Jackson, bass
Francisco Centeno, bass
John Sussewell, drums
Errol Bennett, percussion
Sammy Figueroa, percussion
Valerie Simpson, piano, backing vocals
Nickolas Ashford, backing vocals
Maxine Waters, backing vocals
Julia Waters, backing vocals
Stephanie Spruill, backing vocals

foobar2000 1.3.7 / Замер динамического диапазона (DR) 1.1.1
Дата отчёта: 2016-11-23 12:38:03

––––––––––––––––––––––––––––––––––––––––
Анализ: Diana Ross / The Boss
––––––––––––––––––––––––––––––––––––––––

DR Пики RMS Продолжительность трека
––––––––––––––––––––––––––––––––––––––––
DR10 0.00 дБ -12.63 дБ 4:41 01-No One Gets The Prize
DR10 0.00 дБ -12.05 дБ 4:06 02-I Ain't Been Licked
DR9 0.00 дБ -12.18 дБ 4:18 03-All For One
DR10 0.00 дБ -11.78 дБ 3:58 04-The Boss
DR10 0.00 дБ -12.01 дБ 4:51 05-Once In The Morning
DR10 0.00 дБ -12.13 дБ 4:32 06-It's My House
DR10 0.00 дБ -12.28 дБ 5:21 07-Sparkle
DR10 0.00 дБ -12.96 дБ 3:59 08-I'm In The World
––––––––––––––––––––––––––––––––––––––––

Количество треков: 8
Реальные значения DR: DR10

Частота: 192000 Гц
Каналов: 2
Разрядность: 24
Битрейт: 5954 кбит/с
Кодек: FLAC
================================================================================


Thanks to the Original customer.