XVIII-21 Le Baroque Nomade - D'or et de lumiere (Music for Celebrations) (2017) [Official Digital Download]

Posted By: SERTiL
XVIII-21 Le Baroque Nomade - D'or et de lumiere (Music for Celebrations) (2017) [Official Digital Download]

XVIII-21 Le Baroque Nomade - D'or et de lumiere (Music for Celebrations) (2017)
FLAC (tracks) 24-bit/48 kHz | Time - 68:22 minutes | 671 MB
Studio Master, Official Digital Download | Artwork: Digital booklet

In the 15th century, when the catholic Kings banished the Jews from Spain, “ladino” meant… crafty ! Because only the foxiest (« like the devil … ») spoke that language ! It lived on until nowadays in the Jewish communities, which were built up after that disaster, in Istanbul, Thessaloniki and in Tangier or Tetouan, Morocco. Ladino or Judaeo-Spanish, crossed the Mediterranean sea and took away with it marvelous melodies that sing the bright love, the exile or tell the story of Jewish people.

At the same time, other communities used the Hebrew language for their festive music. Thus the cantatas by Casale Monferrato are a curious adaptation of the Italian baroque style to Moses’ language. Lastly, the fascinating character of Benedetto Marcello teaches us a lot about Synagogal music in Venice.

That program goes thus through Mediterranean Jewish melodies, with their profound rhythms, their poignant melisma, and their emotive poetry mixing, as ever in that culture, self-deprecating, laughs and tears.

TRACKLIST

Rosh Hashana

1 Avinu Malkenu 04:33

Hoshaana Raba (Sukkot, dernier Jour)

2 Dio, Clemenza e Rigore: I. Allegro 02:40
3 Dio, Clemenza e Rigore: II. Andante e piano 04:44
4 Dio, Clemenza e Rigore: III. Recitativo (La Clemenza) 01:12
5 Dio, Clemenza e Rigore: IV. Aria Allegro (La Clemenza) 08:14

Cambridge Consort Books, C. 1595
6 The Jewes Dance 02:43
7 Yo menamori 04:01

Hannuka

8 Intonazione degli Ebrei Tedeschi (Maoz Tsur) 01:05
9 Ocho Kandelikas 04:17
10 Pesrev neveser 02:44
11 Para que quero mas vivir 02:56

Purim

12 Allegro (Casale Monferrato) 02:29
13 Recitativo et Aria (Ester) 07:31
14 Coplas de Purim 02:41
15 La Rosa Enflorece 02:48
16 Cuando el Rey Nimrod 04:16

Pessa h

17 Sonata a 3 03:04
18 Had Gadia 06:31

PERSONNEL
XVIII-21 Le Baroque Nomade
Cyrille Gerstenhaber, soprano, viola de gamba, castanets, crotales
Jean-Christophe Frisch, conductor

foobar2000 1.3.7 / Dynamic Range Meter 1.1.1
log date: 2017-10-17 18:33:53

––––––––––––––––––––––––––––––––––––––––
Analyzed: Cyrille Gerstenhaber, Pierre Rigopoulos / D'or et de lumière (Music for Celebrations) (1)
Cyrille Gerstenhaber / D'or et de lumière (Music for Celebrations) (2)
XVIII-21 Le Baroque Nomade, Cyrille Gerstenhaber, Jean-Christophe Frisch / D'or et de lumière (Music for Celebrations) (3-11)
XVIII-21 Le Baroque Nomade, Isabelle Schmitt, Jean-Christophe Frisch / D'or et de lumière (Music for Celebrations) (12)
XVIII-21 Le Baroque Nomade, Jean-Christophe Frisch / D'or et de lumière (Music for Celebrations) (13-18)
––––––––––––––––––––––––––––––––––––––––

DR Peak RMS Duration Track
––––––––––––––––––––––––––––––––––––––––
DR13 -3.30 dB -20.76 dB 2:48 15-La Rosa Enflorece
DR12 -16.65 dB -36.23 dB 1:05 08-Intonazione degli Ebrei Tedeschi (Maoz Tsur)
DR12 -6.55 dB -25.20 dB 4:33 01-Avinu Malkenu (Rosh Hashana)
DR13 -8.54 dB -28.01 dB 1:12 04-Dio, Clemenza e Rigore: III. Recitativo (La Clemenza)
DR15 -1.77 dB -23.36 dB 8:14 05-Dio, Clemenza e Rigore: IV. Aria Allegro (La Clemenza)
DR12 -6.60 dB -21.74 dB 4:01 07-Yo m'enamori
DR13 -2.36 dB -21.09 dB 4:17 09-Ocho Kandelikas
DR14 -4.73 dB -23.42 dB 7:31 13-Recitativo et Aria (Ester)
DR13 -2.52 dB -19.66 dB 2:41 14-Coplas de Purim
DR16 -0.74 dB -21.17 dB 4:16 16-Cuando el Rey Nimrod
DR14 -0.32 dB -20.40 dB 6:31 18-'Had Gadia
DR11 -5.61 dB -21.34 dB 2:56 11-Para que quero mas vivir
DR14 -5.49 dB -22.41 dB 2:40 02-Dio, Clemenza e Rigore: I. Allegro
DR12 -7.29 dB -23.64 dB 4:44 03-Dio, Clemenza e Rigore: II. Andante e piano
DR14 -3.60 dB -20.57 dB 2:43 06-The Jewes Dance, Cambridge Consort Books, C. 1595
DR12 -9.22 dB -23.89 dB 2:44 10-Pesrev neveser
DR13 -4.26 dB -22.82 dB 2:29 12-Allegro (Casale Monferrato)
DR11 -8.47 dB -22.95 dB 3:04 17-Sonata a 3
––––––––––––––––––––––––––––––––––––––––

Number of tracks: 18
Official DR value: DR13

Samplerate: 48000 Hz
Channels: 2
Bits per sample: 24
Bitrate: 1444 kbps
Codec: FLAC
================================================================================


Thanks to the Original customer.