Douglas Dare - Aforger (2016) [Official Digital Download 24/96]

Posted By: Pisulik
Douglas Dare - Aforger (2016) [Official Digital Download 24/96]

Douglas Dare - Aforger (2016)
FLAC (tracks) 24-bit/96 kHz | Time - 45:36 minutes | 894 MB
Studio Master, Official Digital Download | Artwork: Front cover

Following his acclaimed debut, Whelm, London-based singer-songwriter and pianist Douglas Dare returns with his sophomore album, Aforger on October 14th. In a digital age where memories are mimicked by pixels and identity is as malleable as static, Douglas Dare's new album Aforger questions the boundaries between reality and fiction. Inspired by recent events and revelations encountered in his life, these songs depict Dare at his most vulnerable, whilst simultaneously reflecting our own obsession with reality and technology back at us. Douglas Dare states, 'The album title plays with the idea of a forger - someone creating imitations or copies, and reimagines them as the creator of something that's no longer real. Prior to writing the record, I came out to my father and came out of a long relationship, both were hugely challenging for me and questioned my idea of identity and reality. These thoughts leaked out into the record and formed the core of Aforger. I was determined not to write a break-up album or repeat what I'd done before.'

Inspired by recent events and revelations encountered in his life these songs depict Dare at his most vulnerable, whilst simultaneously reflecting our own obsession with reality and technology back at us. Aforger was produced by long-time collaborator Fabian Prynn, mixed by Paul Gregory of Lanterns On The Lake and mastered at the iconic Abbey Road Studios.

Tracklist:

01. Doublethink
02. Greenhouse
03. Oh Father
04. New York
05. The Edge
06. Binary
07. Stranger
08. Venus
09. Thinking of Him
10. Rex

foobar2000 1.3.7 / Dynamic Range Meter 1.1.1
log date: 2018-02-07 03:18:32

––––––––––––––––––––––––––––––––––––––––
Analyzed: Douglas Dare / Aforger
––––––––––––––––––––––––––––––––––––––––

DR Peak RMS Duration Track
––––––––––––––––––––––––––––––––––––––––
DR7 -0.20 dB -10.06 dB 4:13 01-Doublethink
DR7 -0.20 dB -8.88 dB 3:29 02-Greenhouse
DR7 -0.15 dB -8.86 dB 3:49 03-Oh Father
DR5 -0.19 dB -7.86 dB 4:54 04-New York
DR10 -0.20 dB -13.60 dB 4:31 05-The Edge
DR6 -0.19 dB -10.57 dB 5:18 06-Binary
DR8 -1.20 dB -11.23 dB 4:15 07-Stranger
DR5 -0.19 dB -7.61 dB 3:43 08-Venus
DR5 -0.29 dB -7.43 dB 4:18 09-Thinking of Him
DR6 -0.18 dB -9.73 dB 7:06 10-Rex
––––––––––––––––––––––––––––––––––––––––

Number of tracks: 10
Official DR value: DR7

Samplerate: 96000 Hz
Channels: 2
Bits per sample: 24
Bitrate: 2783 kbps
Codec: FLAC
================================================================================


All thanks go to the original releaser