Dukes of the Orient - Dukes of the Orient (2018) [Official Digital Download]

Posted By: Pisulik
Dukes of the Orient - Dukes of the Orient (2018) [Official Digital Download]

Dukes of the Orient - Dukes of the Orient (2018)
FLAC (tracks) 24-bit/44.1 kHz | Time - 52:57 minutes | 651 MB
Studio Master, Official Digital Download | Artwork: Front cover

What do you get when you match a Brit from London who loves American AOR with an American from California who grew up on British Prog? Dukes of the Orient is the masterful pairing of vocalist John Payne (ex-Asia, GPS) with keyboardist Erik Norlander (Last in Line, Lana Lane) who now present their eponymous debut album, ten years in the making. The two are backed by a world-renown ensemble of top musicians including Jeff Kollman, Guthrie Govan, Moni Scaria and Bruce Bouillet on guitar and Jay Schellen on drums. Payne provides bass guitar and additional lead and rhythm guitar parts to complete the audiophile production. Dukes of the Orient has its origins in 2007 as "Asia Featuring John Payne," a band that continued on after Asia keyboardist, Geoff Downes, left to re-form the original 1982 lineup.

Tracklist:

01. Brother in Arms
02. Strange Days
03. Amor Vincit Omnia
04. Time Waits for No One
05. A Sorrow's Crown
06. Fourth of July
07. Seasons Will Change
08. Give Another Reason

foobar2000 1.3.7 / Dynamic Range Meter 1.1.1
log date: 2018-02-22 15:59:47

––––––––––––––––––––––––––––––––––––––––
Analyzed: Dukes of the Orient / Dukes of the Orient
––––––––––––––––––––––––––––––––––––––––

DR Peak RMS Duration Track
––––––––––––––––––––––––––––––––––––––––
DR5 -0.10 dB -6.77 dB 5:22 01-Brother in Arms
DR6 -0.10 dB -7.91 dB 5:33 02-Strange Days
DR5 -0.10 dB -9.27 dB 5:44 03-Amor Vincit Omnia
DR6 -0.10 dB -7.51 dB 6:03 04-Time Waits for No One
DR6 -0.10 dB -7.00 dB 5:05 05-A Sorrow's Crown
DR6 -0.10 dB -8.23 dB 8:28 06-Fourth of July
DR5 -0.10 dB -7.14 dB 6:37 07-Seasons Will Change
DR6 -0.10 dB -7.64 dB 10:09 08-Give Another Reason
––––––––––––––––––––––––––––––––––––––––

Number of tracks: 8
Official DR value: DR6

Samplerate: 44100 Hz
Channels: 2
Bits per sample: 24
Bitrate: 1660 kbps
Codec: FLAC
================================================================================


All thanks go to the original releaser