Earth, Wind & Fire - Electric Universe (Expanded Edition) (1983/2016) [Official Digital Download 24/96]

Posted By: SERTiL
Earth, Wind & Fire - Electric Universe (Expanded Edition) (1983/2016) [Official Digital Download 24/96]

Earth, Wind & Fire - Electric Universe (Expanded Edition) (1983/2016)
FLAC (tracks) 24-bit/96 kHz | Time - 76:31 minutes | 1.72 GB
Studio Master, Official Digital Download | Artwork: Front Cover

Years of being the kings of Black pop were taking its toll on Earth, Wind & Fire. A split was inevitable, even if they'd recovered from their early 80's slump. They'd been on top for most of the second half of the 1970's with little real competition. No one stays on top of the pop world forever. They could have concentrated on making quality music and certainly more jazz. Maybe stop touring so much, and occasionally slip in some gimmick to keep the bills paid.

Instead, 1983's "Electric Universe" is remembered as what finally finished off EWF. The crossover kings had finally crossed completely into a strange world of electronic-pop-dance-rock (for lack of a better phrase), the result being mostly indigestible. Band members' songwriting credits were now non-existent - even Maurice's credits were at an all time low. "Electric Universe" should have been titled "Maurice White and Friends Present EWF".

In terms of instrumentation, "Electric Universe" isn't among EWF's worst. Verdine was still an excellent musician, popping away at the bass, and guitarist Roland Bautista as proficient as ever. What else can be said about the phenomenal Larry Dunn? The vocal arrangements are very good with a real sense of urgency, but we expect no less of EWF. However, the really obnoxious part of "Electric Universe" are those darn synth drums and arrangements. These appear on every cut in the same form, including the ballads, where they're totally out of place - arrrrgh.

The theme of "Electric Universe" is computerized, futuristic music and lyrics. This project, including the cover art, seemed rushed, probably because it was the third release in 1983. Though the lead single, "Magnetic", charted, it was the first time since 1973 that no EWF single hit the top fifty from a given album. In spite of the advertising blitz, sales of "Electric Universe" were the poorest since 1972's "Last Days And Time".

"Magnetic", with its irrelevant video, was a clear sign of desperation. I would have responded infinitely better to "Magnetic" with the lead part of the chorus ("the rhythm of a dangerous dance …" ) deleted. It keeps repeating, making me cringe every time I hear it. They made little effort in revamping the excellent "The Changing Times" and delivered it's musical carbon copy "Electric Nation". The Vaughns' "Sweet Sassy Lady" is the nail on the coffin.

There are some non-offensive tunes like "Touch", and the pretty ballads "Could It Be Right" and "Living In Our Own Time", but these were destined for oblivion. The arrangements on "Could It Be Right" are nice, so the cut suffers only from the identity it derives from "Electric Universe".

There's not one interlude here, which would have been welcomed to break the monotony. Like "Raise!", this work sounds more like itself than anything else EWF has done. I'm not sure it's a sell-out, but I am sure it's formula driven.

Tracklist:
01. Magnetic (Remastered)
02. Touch (Remastered)
03. Moonwalk (Remastered)
04. Could It Be Right (Remastered)
05. Spirit of a New World (Remastered)
06. Sweet Sassy Lady (Remastered)
07. We're Living in Our Own Time (Remastered)
08. Electric Nation (Remastered)
09. Magnetic (Extended Dance Remix)
10. Magnetic (Instrumental)
11. Magnetic (7" Version)
12. Spirit of a New World (Demo Version)
13. El Solitario (We're Living in Our Own Time Demo Version)
14. Here's to Love (Instrumental)
15. Club Foot
16. Milky Way

Recorded & Mixed by Mick Guzauski
Produced by Maurice White

foobar2000 1.3.7 / Dynamic Range Meter 1.1.1
log date: 2018-02-03 17:40:48

––––––––––––––––––––––––––––––––––––––––
Analyzed: Earth, Wind & Fire / Electric Universe (Expanded Edition)
––––––––––––––––––––––––––––––––––––––––

DR Peak RMS Duration Track
––––––––––––––––––––––––––––––––––––––––
DR10 -0.03 dB -12.31 dB 4:21 01-Magnetic (Remastered)
DR11 -0.03 dB -12.67 dB 4:55 02-Touch (Remastered)
DR12 -0.03 dB -12.80 dB 4:09 03-Moonwalk (Remastered)
DR11 -0.03 dB -14.58 dB 5:12 04-Could It Be Right (Remastered)
DR11 -0.03 dB -12.36 dB 4:30 05-Spirit of a New World (Remastered)
DR11 -0.03 dB -12.79 dB 4:11 06-Sweet Sassy Lady (Remastered)
DR13 -0.03 dB -16.24 dB 5:21 07-We're Living in Our Own Time (Remastered)
DR11 -0.03 dB -12.48 dB 4:31 08-Electric Nation (Remastered)
DR11 -0.03 dB -12.35 dB 6:22 09-Magnetic (Extended Dance Remix)
DR11 -0.03 dB -12.43 dB 5:48 10-Magnetic (Instrumental)
DR10 -0.03 dB -12.25 dB 3:51 11-Magnetic (7" Version)
DR10 -0.03 dB -11.82 dB 4:34 12-Spirit of a New World (Demo Version)
DR12 -0.03 dB -14.46 dB 5:12 13-El Solitario (We're Living in Our Own Time Demo Version)
DR11 -0.03 dB -12.40 dB 4:21 14-Here's to Love (Instrumental)
DR9 -0.03 dB -11.65 dB 3:57 15-Club Foot
DR14 -0.03 dB -15.99 dB 5:23 16-Milky Way
––––––––––––––––––––––––––––––––––––––––

Number of tracks: 16
Official DR value: DR11

Samplerate: 96000 Hz
Channels: 2
Bits per sample: 24
Bitrate: 3098 kbps
Codec: FLAC
================================================================================


Thanks to the Original customer.